img image001 image001 image001 image001 image001 image001 image001 image001 image001 image001 image001 image001 image001 image001 image001 image001

Planets Sun Sun Sun
Статистика раздачи
Автор: Снежана | Размер: 1.41 ГБ | Добавлен: 09 июн 2018
Раздают: 33    Качают: 0
Скачать торрент
Скачать торрент
Описание торрента

СообщениеДобавлено: 09 июн 2018 

Эвтанайзер / Armomurhaaja
Оценка релиза: 

Перевод: Любительский (двухголосый)datynet & Galina Vasyukova; перевод: Куценко, субтитры: отсутствуют
Формат: HDTVRip, MKV, MPEG-4, MP3
Страна: Финляндия
Режиссер: Теэму Никки / Teemu Nikki
Жанр: триллер
Продолжительность: 01:23:25
Год выпуска: 2017
В ролях: Илари Йоханссон, Сантту Карвонен, Хейкки Ноусилайнен, Матти Оннисмаа, Пихла Пенттинен, Алина Томникова, Яри Вирман, Джоуко Пуоланто, Ханнамайя Никандер, Эрин Хедберг, Джоэль Хирвонен, Тиина Хаттунен, Пекка Кеттунен, Юха Лехти, Ансси Ниеми, Петри Паттонен, Олли Рахконен, Рами Русинен, Петри Тийхонен, Вертти Виркаярви, Янина Витковски.
Описание: Главный герой — нелюдимый механик, который, помимо ремонта автомобилей, имеет еще и побочную работу. Он — эвтанайзер — усыпляет домашних животных по желанию их хозяев. Несмотря на мрачную работу и замкнутый характер, механик не лишен сострадания к ближним, в особенности к животным. Все проблемы у механика начинаются, когда он решает не усыплять собаку, которую ему привезли на эвтаназию. Об этом узнает хозяин пса и ему это категорически не нравится.



Видео: 1280x534 (2.40:1), 25fps, MPEG-4 AVC ~2 230 kbps avg, 0.130 bit/pixel
Аудио: 48 kHz, MPEG Layer 3, 2 ch, ~192.00 kbps avg
Доп. информация: 3 победы и 4 номинации.
Юсси — финская национальная кинопремия 2018.
Международный кинофестиваль в Токио 2017.




Format : Matroska
Format version : Version 4 / Version 2
File size : 1.41 GiB
Duration : 1 h 24 min
Overall bit rate : 2 408 kb/s
Encoded date : UTC 2018-06-08 18:13:50
Writing application : mkvmerge v9.6.0 ('Slave To Your Mind') 64bit
Writing library : libebml v1.3.4 + libmatroska v1.4.5

Video
ID : 1
Format : HEVC
Format/Info : High Efficiency Video Coding
Format profile : @Main
Codec ID : V_MPEGH/ISO/HEVC
Duration : 1 h 23 min
Bit rate : 2 230 kb/s
Width : 1 280 pixels
Height : 534 pixels
Display aspect ratio : 2.40:1
Original display aspect rat : 2.40:1
Frame rate mode : Constant
Frame rate : 25.000 FPS
Color space : YUV
Chroma subsampling : 4:2:0
Bit depth : 8 bits
Bits/(Pixel*Frame) : 0.130
Stream size : 1.30 GiB (92%)
Writing library : x265 2.6+2-32e6f04b8713:[Windows][GCC 7.2.0][64 bit] 8bit+10bit+12bit
Encoding settings : cpuid=1050111 / frame-threads=2 / numa-pools=4 / wpp / no-pmode / no-pme / no-psnr / no-ssim / log-level=2 / input-csp=1 / input-res=1280x534 / interlace=0 / total-frames=125133 / level-idc=31 / high-tier=1 / uhd-bd=0 / ref=3 / no-allow-non-conformance / no-repeat-headers / annexb / no-aud / no-hrd / info / hash=0 / no-temporal-layers / open-gop / min-keyint=25 / keyint=250 / bframes=4 / b-adapt=0 / b-pyramid / bframe-bias=0 / rc-lookahead=15 / lookahead-slices=0 / scenecut=40 / no-intra-refresh / ctu=64 / min-cu-size=8 / no-rect / no-amp / max-tu-size=32 / tu-inter-depth=1 / tu-intra-depth=1 / limit-tu=0 / rdoq-level=0 / dynamic-rd=0.00 / no-ssim-rd / signhide / no-tskip / nr-intra=0 / nr-inter=0 / no-constrained-intra / strong-intra-smoothing / max-merge=2 / limit-refs=3 / no-limit-modes / me=2 / subme=2 / merange=57 / temporal-mvp / weightp / no-weightb / no-analyze-src-pics / deblock=0:0 / sao / no-sao-non-deblock / rd=2 / no-early-skip / rskip / fast-intra / no-tskip-fast / no-cu-lossless / no-b-intra / no-splitrd-skip / rdpenalty=0 / psy-rd=2.00 / psy-rdoq=0.00 / no-rd-refine / analysis-reuse-mode=0 / no-lossless / cbqpoffs=0 / crqpoffs=0 / rc=crf / crf=16.0 / qcomp=0.60 / qpstep=4 / stats-write=0 / stats-read=0 / vbv-maxrate=10000 / vbv-bufsize=10000 / vbv-init=0.9 / crf-max=0.0 / crf-min=0.0 / ipratio=1.40 / pbratio=1.30 / aq-mode=1 / aq-strength=1.00 / cutree / zone-count=0 / no-strict-cbr / qg-size=32 / no-rc-grain / qpmax=69 / qpmin=0 / no-const-vbv / sar=255 / sar-width / : / sar-height=801:800 / overscan=0 / videoformat=5 / range=0 / colorprim=1 / transfer=1 / colormatrix=1 / chromaloc=0 / display-window=0 / max-cll=0,0 / min-luma=0 / max-luma=255 / log2-max-poc-lsb=8 / vui-timing-info / vui-hrd-info / slices=1 / no-opt-qp-pps / no-opt-ref-list-length-pps / no-multi-pass-opt-rps / scenecut-bias=0.05 / no-opt-cu-delta-qp / no-aq-motion / no-hdr / no-hdr-opt / no-dhdr10-opt / analysis-reuse-level=5 / scale-factor=0 / refine-intra=0 / refine-inter=0 / refine-mv=0 / no-limit-sao / ctu-info=0 / no-lowpass-dct / refine-mv-type=0 / copy-pic=1
Default : Yes
Forced : No
Color range : Limited
Color primaries : BT.709
Transfer characteristics : BT.709
Matrix coefficients : BT.709

Audio
ID : 2
Format : MPEG Audio
Format version : Version 1
Format profile : Layer 3
Codec ID : A_MPEG/L3
Codec ID/Hint : MP3
Duration : 1 h 24 min
Bit rate mode : Constant
Bit rate : 192 kb/s
Channel(s) : 2 channels
Sampling rate : 48.0 kHz
Frame rate : 41.667 FPS (1152 SPF)
Compression mode : Lossy
Stream size : 115 MiB (8%)
Default : Yes
Forced : No














   Похожие торренты   Торрент   Размер 
В этой теме нет новых непрочитанных сообщений. Эвтанайзер / Armomurhaaja (Теэму Никки) [2017, триллер, драма, HDTVRip-AVC] DVO

38 | 0

1.61 ГБ

В этой теме нет новых непрочитанных сообщений. Палачи / The Executioners (Джорджо Серафини) [2017, ужасы, триллер, WEBDLRip-AVC] DVO / Фильмы HDRip

6 | 0

2.15 ГБ

В этой теме нет новых непрочитанных сообщений. Обитель теней / Marrowbone (Серхио Х. Санчес) [2017, ужасы, триллер, драма, WEB-DLRip-AVC] 2xDUB (rus, ukr) / Фильмы HDRip

9 | 0

3.56 ГБ

В этой теме нет новых непрочитанных сообщений. Техасская резня бензопилой: Кожаное лицо / Leatherface (Александр Бустильо, Жюльен Мори) [2017, ужасы, триллер, BDRip-AVC] DUB / Фильмы HDRip

15 | 0

2.18 ГБ

В этой теме нет новых непрочитанных сообщений. Акулосьминог против Китоволка / Sharktopus vs. Whalewolf (Кевин О’Нилл) [2015, фантастика, боевик, триллер, приключения, HDTVRip-AVC] AVO / Фильмы HDRip

326 | 8

2.76 ГБ

В этой теме нет новых непрочитанных сообщений. Кукла / The Boy (Уильям Брент Белл) [2016, триллер, BDRip-AVC] DUB / Фильмы HDRip

3 | 0

2.18 ГБ

В этой теме нет новых непрочитанных сообщений. Тело / The Body / El cuerpo (Ориол Паоло) [2012, триллер, детектив, BDRip-AVC] MVO / Фильмы HDRip

54 | 0

3.13 ГБ




Вы не можете начинать темы
Вы не можете отвечать на сообщения
Вы не можете редактировать свои сообщения
Вы не можете удалять свои сообщения
Вы не можете добавлять вложения

Перейти:  
 Вход
ppkBB3cker v.2 © 2008-2014 @ PPK
[ Time : 0.025s | 16 Queries | GZIP : Off ]

cron