img image001 image001 image001 image001 image001 image001 image001 image001 image001 image001 image001 image001 image001 image001 image001 image001

Planets Sun Sun Sun
Статистика раздачи
Автор: Снежана | Размер: 1.87 ГБ | Добавлен: 09 июн 2018
Раздают: 8    Качают: 0
Скачать торрент
Скачать торрент
Описание торрента

СообщениеДобавлено: 09 июн 2018 

[quote="vamo"]
Редкая бабочка / The Butterfly Tree


Перевод: Профессиональный (многоголосый закадровый)
Субтитры: Английские
Формат: BDRip, MKV, H.264, AC3
Страна: Австралия
Режиссер: Присцилла Камерон
Жанр: драма, комедия
Продолжительность: 01:36:04
Год выпуска: 2017
В ролях: Мелисса Джордж, Ивен Лесли, Эд Оксенбульд, Софи Лоу, Элла Джаз Макроканис, Лорен Диллон, Паула Назарски, Стив Нейшн, Лайам Хоп Йек Доддс, Тэмми Сара Линде

Описание: Одинокий отец и его сын-подросток влюбляются в новую соседку, Эвелин, королеву бурлеска.



Видео: 1024x458 (2.25:1), 23,976 fps, AVC MPEG-4 (x264), High@L4,1 ~ 1 963 kbps avg, 0.175 bit/pixel

Аудио#1: Русский: 48 kHz/16 bits, AC3 Dolby Digital, 3/2 (L,C,R,l,r) + LFE ch, ~ 384 kbps avg [Профессиональный (многоголосый закадровый), iTunes]
Аудио#2: Английский: 48 kHz/16 bits, AC3 Dolby Digital, 3/2 (L,C,R,l,r) + LFE ch, ~ 448 kbps avg [Оригинал]







Общее
Уникальный идентификатор : 186889341227088989579865802006687610042 (0x8C9993EE584F477AB685482975BB74BA)
Полное имя : E:OlLanDGroupThe.Butterfly.Tree.2017.BDRip(AVC).OlLanDGroup.mkv
Формат : Matroska
Версия формата : Version 4 / Version 2
Размер файла : 1,87 Гбайт
Продолжительность : 1 ч. 36 м.
Общий поток : 2789 Кбит/сек
Название фильма : The.Butterfly.Tree.2017 #TorpedoUK#
Дата кодирования : UTC 2018-06-09 01:58:29
Программа кодирования : mkvmerge v8.3.0 ('Over the Horizon') 64bit
Библиотека кодирования : libebml v1.3.1 + libmatroska v1.4.2
Обложка : Yes
Attachments : cover_land.jpg / small_cover.jpg / small_cover_land.jpg / cover.jpg

Видео
Идентификатор : 1
Формат : AVC
Формат/Информация : Advanced Video Codec
Профиль формата :
Параметр CABAC формата : Да
Параметр ReFrames формата : 10 кадров
Идентификатор кодека : V_MPEG4/ISO/AVC
Продолжительность : 1 ч. 36 м.
Битрейт : 1963 Кбит/сек
Ширина : 1024 пикселя
Высота : 458 пикселей
Соотношение сторон : 2,25:1
Режим частоты кадров : Постоянный
Частота кадров : 23,976 (24000/1001) кадра/сек
Цветовое пространство : YUV
Субдискретизация насыщенности : 4:2:0
Битовая глубина : 8 бит
Тип развёртки : Прогрессивная
Бит/(Пиксели*Кадры) : 0.175
Размер потока : 1,31 Гбайт (70%)
Библиотека кодирования : x264 core 146 r2538 121396c
Настройки программы : cabac=1 / ref=10 / deblock=1:-3:-3 / analyse=0x3:0x133 / me=umh / subme=11 / psy=1 / psy_rd=0.99:0.05 / mixed_ref=1 / me_range=48 / chroma_me=1 / trellis=2 / 8x8dct=1 / cqm=0 / deadzone=21,11 / fast_pskip=1 / chroma_qp_offset=-3 / threads=6 / lookahead_threads=1 / sliced_threads=0 / nr=0 / decimate=1 / interlaced=0 / bluray_compat=0 / constrained_intra=0 / bframes=10 / b_pyramid=2 / b_adapt=2 / b_bias=0 / direct=3 / weightb=1 / open_gop=0 / weightp=2 / keyint=240 / keyint_min=23 / scenecut=40 / intra_refresh=0 / rc_lookahead=40 / rc=2pass / mbtree=0 / bitrate=1963 / ratetol=1.0 / qcomp=0.60 / qpmin=0 / qpmax=69 / qpstep=4 / cplxblur=20.0 / qblur=0.5 / vbv_maxrate=50000 / vbv_bufsize=62500 / nal_hrd=none / filler=0 / ip_ratio=1.40 / pb_ratio=1.30 / aq=1:1.00
Язык : English
Default : Да
Forced : Нет

Аудио #1
Идентификатор : 2
Формат : AC-3
Формат/Информация : Audio Coding 3
Расширение режима : CM (complete main)
Параметр Endianness формата : Big
Идентификатор кодека : A_AC3
Продолжительность : 1 ч. 36 м.
Вид битрейта : Постоянный
Битрейт : 384 Кбит/сек
Каналы : 6 каналов
Расположение каналов : Front: L C R, Side: L R, LFE
Частота : 48,0 КГц
Частота кадров : 31,250 кадров/сек (1536 spf)
Битовая глубина : 16 бит
Метод сжатия : С потерями
Размер потока : 264 Мбайт (14%)
Заголовок : iTunes
Язык : Russian
Default : Да
Forced : Нет

Аудио #2
Идентификатор : 3
Формат : AC-3
Формат/Информация : Audio Coding 3
Расширение режима : CM (complete main)
Параметр Endianness формата : Big
Идентификатор кодека : A_AC3
Продолжительность : 1 ч. 36 м.
Вид битрейта : Постоянный
Битрейт : 448 Кбит/сек
Каналы : 6 каналов
Расположение каналов : Front: L C R, Side: L R, LFE
Частота : 48,0 КГц
Частота кадров : 31,250 кадров/сек (1536 spf)
Битовая глубина : 16 бит
Метод сжатия : С потерями
Размер потока : 308 Мбайт (16%)
Заголовок : Original
Язык : English
Default : Нет
Forced : Нет

Текст
Идентификатор : 4
Формат : UTF-8
Идентификатор кодека : S_TEXT/UTF8
Идентификатор кодека/Информация : UTF-8 Plain Text
Продолжительность : 1 ч. 25 м.
Битрейт : 27 бит/сек
Count of elements : 689
Размер потока : 16,9 Кбайт (0%)
Заголовок : Full
Язык : English
Default : Нет
Forced : Нет

Меню
00:00:00.000 : en:Chapter 01
00:08:08.488 : en:Chapter 02
00:17:10.029 : en:Chapter 03
00:27:10.086 : en:Chapter 04
00:36:00.116 : en:Chapter 05
00:47:39.982 : en:Chapter 06
00:57:01.292 : en:Chapter 07
01:05:22.752 : en:Chapter 08
01:16:23.245 : en:Chapter 09
01:23:32.048 : en:Chapter 10





   Похожие торренты   Торрент   Размер 
В этой теме нет новых непрочитанных сообщений. Редкая бабочка / The Butterfly Tree (Присцилла Камерон) [2017, драма, комедия, BDRip] MVO

47 | 0

1.46 ГБ

В этой теме нет новых непрочитанных сообщений. Черная бабочка / Black Butterfly (2017) HDRip-AVC от ImperiaFilm | iTunes

146 | 4

741.61 МБ

В этой теме нет новых непрочитанных сообщений. Черная бабочка / Black Butterfly (2017) HDRip от Scarabey | iTunes

2935 | 79

1.44 ГБ

В этой теме нет новых непрочитанных сообщений. Черная бабочка / Black Butterfly (2017) HDRip от Generalfilm | КПК | iTunes

115 | 8

355.2 МБ

В этой теме нет новых непрочитанных сообщений. Быть Джоном Малковичем / Being John Malkovich (Спайк Джонс) [1999, фэнтези, драма, комедия, BDRip-AVC] DUB+MVO+2xAVO / Фильмы HDRip

4 | 0

2.93 ГБ

В этой теме нет новых непрочитанных сообщений. Репортерша / Whiskey Tango Foxtrot (Гленн Фикарра, Джон Рекуа) [2016, драма, комедия, военный, биография, BDRip-AVC] DUB / Фильмы HDRip

2 | 0

2.87 ГБ

В этой теме нет новых непрочитанных сообщений. Общество мертвых поэтов / Dead Poets Society (Питер Уир) [1989, драма, комедия, HDRip-AVC] DUB+MVO+DVO+AVO / Фильмы HDRip

2 | 0

3.4 ГБ




Вы не можете начинать темы
Вы не можете отвечать на сообщения
Вы не можете редактировать свои сообщения
Вы не можете удалять свои сообщения
Вы не можете добавлять вложения

Перейти:  
 Вход
ppkBB3cker v.2 © 2008-2014 @ PPK
[ Time : 0.031s | 18 Queries | GZIP : Off ]

cron