img image001 image001 image001 image001 image001 image001 image001 image001 image001 image001 image001 image001 image001 image001 image001 image001

Planets Sun Sun Sun
Статистика раздачи
Автор: Снежана | Размер: 1.38 ГБ | Добавлен: 09 июн 2018
Раздают: 39    Качают: 0
Скачать торрент
Скачать торрент
Описание торрента

СообщениеДобавлено: 09 июн 2018 

Полночное солнце / Midnight Sun

Перевод: Профессиональный (полное дублирование) iTunes
Субтитры: Отсутствуют
Формат: HDRip-AVC, MKV, H.264, AC3
Страна: США
Режиссер: Скотт Спир
Жанр: драма, мелодрама
Продолжительность: 01:31:52
Год выпуска: 2018

В ролях: Белла Торн, Патрик Шварценеггер, Роб Риггл, Куинн Шепард, Кен Тремблетт, Джен Гриффин, Николас Кумбе, Тиера Сковбай, Пол МакДжиллион

Описание: Ночами 17-летняя Кэти сочиняет свои красивые песни под гитару, а днем вынуждена скрываться во мраке: её нежная кожа не выносит солнечного света. Но однажды в полночь она знакомится с Чарли, веселым парнем с копной рыжих, как солнце, волос и очаровательной улыбкой. Внезапная и страстная любовь яркой вспышкой озаряет жизнь больной девушки. И теперь ради возлюбленного она готова сгореть в лучах света безумного чувства...



Видео: 984x412 (2.40:1), 23.976 fps, AVC MPEG-4 (H.264), ~1718 kbps, 0.177 bit/pixel
Аудио: 48 kHz, AC3 Dolby Digital, 3/2 (L,C,R,l,r) + LFE ch, ~ 384 kbps

Format : Matroska
Format version : Version 2
File size : 1.38 GiB
Duration : 1 h 31 min
Overall bit rate : 2 145 kb/s
Movie name : Полночное солнце (2018) HDRip-AVC_ivanes20031987
Encoded date : UTC 2018-06-07 11:47:24
Writing application : mkvmerge v4.4.0 ('Die Wiederkehr') сборка от Jan 3 2011 21:40:45
Writing library : libebml v1.0.0 + libmatroska v1.0.0
Cover : Yes
Attachments : cover.jpg

Video
ID : 1
Format : AVC
Format/Info : Advanced Video Codec
Format profile :
Format settings, CABAC : Yes
Format settings, RefFrames : 14 frames
Codec ID : V_MPEG4/ISO/AVC
Duration : 1 h 31 min
Bit rate : 1 718 kb/s
Width : 984 pixels
Height : 412 pixels
Display aspect ratio : 2.40:1
Frame rate mode : Constant
Frame rate : 23.976 (24000/1001) FPS
Color space : YUV
Chroma subsampling : 4:2:0
Bit depth : 8 bits
Scan type : Progressive
Bits/(Pixel*Frame) : 0.177
Stream size : 1.10 GiB (80%)
Title : Rip by ivanes20031987
Writing library : x264 core 155 r2901 7d0ff22
Encoding settings : cabac=1 / ref=14 / deblock=1:-3:-3 / analyse=0x3:0x113 / me=umh / subme=10 / psy=1 / psy_rd=1.00:0.00 / mixed_ref=1 / me_range=32 / chroma_me=1 / trellis=2 / 8x8dct=1 / cqm=0 / deadzone=21,11 / fast_pskip=0 / chroma_qp_offset=-2 / threads=12 / lookahead_threads=3 / sliced_threads=0 / nr=0 / decimate=0 / interlaced=0 / bluray_compat=0 / constrained_intra=0 / bframes=14 / b_pyramid=2 / b_adapt=2 / b_bias=0 / direct=1 / weightb=1 / open_gop=0 / weightp=2 / keyint=240 / keyint_min=23 / scenecut=40 / intra_refresh=0 / rc_lookahead=60 / rc=crf / mbtree=0 / crf=16.6 / qcomp=0.60 / qpmin=0 / qpmax=69 / qpstep=4 / vbv_maxrate=50000 / vbv_bufsize=62500 / crf_max=0.0 / nal_hrd=none / filler=0 / ip_ratio=1.40 / pb_ratio=1.30 / aq=1:1.00
Default : Yes
Forced : No

Audio
ID : 2
Format : AC-3
Format/Info : Audio Coding 3
Format settings, Endianness : Big
Codec ID : A_AC3
Duration : 1 h 31 min
Bit rate mode : Constant
Bit rate : 384 kb/s
Channel(s) : 6 channels
Channel positions : Front: L C R, Side: L R, LFE
Sampling rate : 48.0 kHz
Frame rate : 31.250 FPS (1536 SPF)
Bit depth : 16 bits
Compression mode : Lossy
Stream size : 252 MiB (18%)
Title : iTunes
Language : Russian
Service kind : Complete Main
Default : Yes
Forced : No












   Похожие торренты   Торрент   Размер 
В этой теме нет новых непрочитанных сообщений. Полночное солнце / Midnight Sun (Скотт Спир) [2018, Драма, мелодрама, HDRip] DUB

102 | 7

1.46 ГБ

В этой теме нет новых непрочитанных сообщений. Ремнант: Всё ещё вижу тебя / I Still See You (Скотт Спир) [2018, триллер, WEBDLRip] DUB

195 | 8

1.37 ГБ

В этой теме нет новых непрочитанных сообщений. Ремнант: Всё ещё вижу тебя / I Still See You (Скотт Спир) [2018, триллер, WEBDLRip] DUB

66 | 0

1.37 ГБ

В этой теме нет новых непрочитанных сообщений. Ремнант: Всё ещё вижу тебя / I Still See You (Скотт Спир) [2018, триллер, WEBDLRip] MVO

151 | 8

1.46 ГБ

В этой теме нет новых непрочитанных сообщений. Ремнант: Всё ещё вижу тебя / I Still See You (Скотт Спир) [2018, триллер, WEBDLRip] MVO

35 | 5

1.37 ГБ

В этой теме нет новых непрочитанных сообщений. Полночь FM / Полночное радио / Midnight FM / Simya-ui FM (2010) HDRip от RG Orient Extreme | L1

14 | 2

2.17 ГБ

В этой теме нет новых непрочитанных сообщений. Хороший год / A Good Year (Ридли Скотт) [2006, драма, мелодрама, комедия, HDRip] DUB / Драмы

137 | 1

1.45 ГБ




Вы не можете начинать темы
Вы не можете отвечать на сообщения
Вы не можете редактировать свои сообщения
Вы не можете удалять свои сообщения
Вы не можете добавлять вложения

Перейти:  
 Вход
ppkBB3cker v.2 © 2008-2014 @ PPK
[ Time : 0.032s | 17 Queries | GZIP : Off ]

cron