img image001 image001 image001 image001 image001 image001 image001 image001 image001 image001 image001 image001 image001 image001 image001 image001

Planets Sun Sun Sun
Статистика раздачи
Автор: Снежана | Размер: 1.46 ГБ | Добавлен: 09 июн 2018
Раздают: 32    Качают: 8
Скачать торрент
Скачать торрент
Описание торрента

СообщениеДобавлено: 09 июн 2018 

Последний свидетель / The Last Witness


Перевод: Профессиональный (многоголосый закадровый) HDrezka Studio
Cубтитры: Английские
Формат: WEB-DLRip-AVC, H.264, XviD, AC3
Страна: Польша, Великобритания
Режиссер: Пётр Шкопяк
Жанр: триллер, история
Продолжительность: 01:33:19
Год выпуска: 2018
В ролях: Роберт Вечкевич, Уилл Торп, Крис Уокер, Талула Райли, Петр Страмовски, Алекс Петтифер, Генри Ллойд-Хьюз, Сэм Маркс, Гвилим Ли, Майкл Гэмбон

Описание: Действие фильма разворачивается после окончания Второй мировой войны, в 1947 году, в Англии. Главный герой фильма - молодой журналист, который больше всего на свете любит правду. Поэтому он начинает собственное расследование жестокого массового уничтожения более двадцати тысяч польских солдат. Это оказалось сложной работой, ведь эта бойня покрыта множеством секретов и лжи...



Видео: 1024x426 (2,40:1), 23.976 fps, AVC MPEG-4 (x264), High@L4,1 ~ 1 854 Кбит/сек, 0.177 bit/pixel

Аудио#1: Русский: 48 kHz/16 bits, AC3 Dolby Digital, 2/0 (L,R) ch, ~192 kbps avg [Профессиональный (многоголосый закадровый), HDrezka Studio]
Аудио#2: Английский: 48 kHz/16 bits, AC3 Dolby Digital, 2/0 (L,R) ch, ~192 kbps avg [Оригинал]





Общее
Уникальный идентификатор : 254100048159311258315402337498907099444 (0xBF29E3A01F5CEB419F8DEC82DA794134)
Полное имя : E:\OlLanDGroup\The.Last.Witness.2018.WEB-DLRip(AVC).OlLanDGroup.mkv
Формат : Matroska
Версия формата : Version 4 / Version 2
Размер файла : 1,46 Гбайт
Продолжительность : 1 ч. 33 м.
Общий поток : 2237 Кбит/сек
Название фильма : The.Last.Witness.2018 #TorpedoUK#
Дата кодирования : UTC 2018-06-09 12:46:00
Программа кодирования : mkvmerge v8.3.0 ('Over the Horizon') 64bit
Библиотека кодирования : libebml v1.3.1 + libmatroska v1.4.2
Обложка : Yes
Attachments : small_cover.jpg / small_cover_land.jpg / cover.jpg / cover_land.jpg

Видео
Идентификатор : 1
Формат : AVC
Формат/Информация : Advanced Video Codec
Профиль формата :
Параметр CABAC формата : Да
Параметр ReFrames формата : 10 кадров
Идентификатор кодека : V_MPEG4/ISO/AVC
Продолжительность : 1 ч. 33 м.
Битрейт : 1854 Кбит/сек
Ширина : 1024 пикселя
Высота : 426 пикселей
Соотношение сторон : 2,40:1
Режим частоты кадров : Постоянный
Частота кадров : 23,976 (24000/1001) кадра/сек
Цветовое пространство : YUV
Субдискретизация насыщенности : 4:2:0
Битовая глубина : 8 бит
Тип развёртки : Прогрессивная
Бит/(Пиксели*Кадры) : 0.177
Размер потока : 1,21 Гбайт (83%)
Библиотека кодирования : x264 core 146 r2538 121396c
Настройки программы : cabac=1 / ref=10 / deblock=1:-3:-3 / analyse=0x3:0x133 / me=umh / subme=11 / psy=1 / psy_rd=0.99:0.05 / mixed_ref=1 / me_range=48 / chroma_me=1 / trellis=2 / 8x8dct=1 / cqm=0 / deadzone=21,11 / fast_pskip=1 / chroma_qp_offset=-3 / threads=6 / lookahead_threads=1 / sliced_threads=0 / nr=0 / decimate=1 / interlaced=0 / bluray_compat=0 / constrained_intra=0 / bframes=10 / b_pyramid=2 / b_adapt=2 / b_bias=0 / direct=3 / weightb=1 / open_gop=0 / weightp=2 / keyint=240 / keyint_min=23 / scenecut=40 / intra_refresh=0 / rc_lookahead=40 / rc=2pass / mbtree=0 / bitrate=1854 / ratetol=1.0 / qcomp=0.60 / qpmin=0 / qpmax=69 / qpstep=4 / cplxblur=20.0 / qblur=0.5 / vbv_maxrate=50000 / vbv_bufsize=62500 / nal_hrd=none / filler=0 / ip_ratio=1.40 / pb_ratio=1.30 / aq=1:1.00
Default : Да
Forced : Нет

Аудио #1
Идентификатор : 2
Формат : AC-3
Формат/Информация : Audio Coding 3
Расширение режима : CM (complete main)
Параметр Endianness формата : Big
Идентификатор кодека : A_AC3
Продолжительность : 1 ч. 33 м.
Вид битрейта : Постоянный
Битрейт : 192 Кбит/сек
Каналы : 2 канала
Расположение каналов : Front: L R
Частота : 48,0 КГц
Частота кадров : 31,250 кадров/сек (1536 spf)
Битовая глубина : 16 бит
Метод сжатия : С потерями
Размер потока : 128 Мбайт (9%)
Заголовок : [HDRezka Studio]
Язык : Russian
Default : Да
Forced : Нет

Аудио #2
Идентификатор : 3
Формат : AC-3
Формат/Информация : Audio Coding 3
Расширение режима : CM (complete main)
Параметр Endianness формата : Big
Идентификатор кодека : A_AC3
Продолжительность : 1 ч. 33 м.
Вид битрейта : Постоянный
Битрейт : 192 Кбит/сек
Каналы : 2 канала
Расположение каналов : Front: L R
Частота : 48,0 КГц
Частота кадров : 31,250 кадров/сек (1536 spf)
Битовая глубина : 16 бит
Метод сжатия : С потерями
Размер потока : 128 Мбайт (9%)
Заголовок : Original
Язык : English
Default : Нет
Forced : Нет

Текст #1
Идентификатор : 4
Формат : UTF-8
Идентификатор кодека : S_TEXT/UTF8
Идентификатор кодека/Информация : UTF-8 Plain Text
Продолжительность : 1 ч. 30 м.
Битрейт : 41 бит/сек
Count of elements : 784
Размер потока : 27,2 Кбайт (0%)
Заголовок : Full
Язык : English
Default : Нет
Forced : Нет

Текст #2
Идентификатор : 5
Формат : UTF-8
Идентификатор кодека : S_TEXT/UTF8
Идентификатор кодека/Информация : UTF-8 Plain Text
Продолжительность : 1 ч. 30 м.
Битрейт : 44 бит/сек
Count of elements : 852
Размер потока : 29,4 Кбайт (0%)
Заголовок : SDH
Язык : English
Default : Нет
Forced : Нет

Меню
00:00:00.000 : en:1
00:05:43.009 : en:2
00:12:45.639 : en:3
00:15:13.370 : en:4
00:21:57.231 : en:5
00:27:39.906 : en:6
00:34:06.958 : en:7
00:39:21.771 : en:8
00:46:13.932 : en:9
00:52:06.950 : en:10
00:56:37.428 : en:11
01:03:04.273 : en:12
01:08:48.408 : en:13
01:15:40.861 : en:14
01:19:23.791 : en:15
01:26:27.213 : en:16





   Похожие торренты   Торрент   Размер 
В этой теме нет новых непрочитанных сообщений. Последний свидетель / The Last Witness (Пётр Шкопяк) [2018, триллер, история, WEB-DLRip] MVO

15 | 7

1.46 ГБ

В этой теме нет новых непрочитанных сообщений. Последний свидетель / The Last Witness (Пётр Шкопяк) [2018, триллер, история, WEBDLRip] MVO

9 | 0

1.46 ГБ

В этой теме нет новых непрочитанных сообщений. Последний свидетель / Furthest Witness (Адам Дель Джудице) [2017, драма, криминал, триллер, WEBDLRip] MVO

9 | 0

1.37 ГБ

В этой теме нет новых непрочитанных сообщений. Безмолвный свидетель / Немой свидетель / Silent Witness [S21] (2018) HDTVRip | ColdFilm

2 | 2

6.6 ГБ

В этой теме нет новых непрочитанных сообщений. Безмолвный свидетель / Немой свидетель / Silent Witness [21x01-08 из 10] (2018) HDTVRip | ColdFilm

0 | 0

5.19 ГБ

В этой теме нет новых непрочитанных сообщений. Безмолвный свидетель/Немой свидетель / Silent Witness [21x01 из 10] (2018) HDTVRip | ColdFilm

0 | 0

592.62 МБ

В этой теме нет новых непрочитанных сообщений. Безмолвный свидетель / Немой свидетель / Silent Witness [21x01-05 из 10] (2018) HDTVRip | ColdFilm

0 | 0

3.16 ГБ




Вы не можете начинать темы
Вы не можете отвечать на сообщения
Вы не можете редактировать свои сообщения
Вы не можете удалять свои сообщения
Вы не можете добавлять вложения

Перейти:  
 Вход
ppkBB3cker v.2 © 2008-2014 @ PPK
[ Time : 0.240s | 18 Queries | GZIP : Off ]

cron