img image001 image001 image001 image001 image001 image001 image001 image001 image001 image001 image001 image001 image001 image001 image001 image001

Planets Sun Sun Sun
Статистика раздачи
Автор: Снежана | Размер: 2.91 ГБ | Добавлен: 12 июн 2018
Раздают: 17    Качают: 3
Скачать торрент
Скачать торрент
Описание торрента

СообщениеДобавлено: 12 июн 2018 

Костяной томагавк / Bone Tomahawk


Перевод: Профессиональный (полное дублирование) Лицензия R5
Cубтитры: Pусские, английские
Формат: BDRip-AVC, MKV, H.264, AC3
Страна: США
Режиссер: С. Крэйг Залер
Жанр: вестерн, ужасы
Продолжительность: 02:12:03
Год выпуска: 2015
В ролях: Патрик Уилсон, Курт Расселл, Лили Симмонс, Шон Янг, Занн МаКларнон, Мэттью Фокс, Дэвид Аркетт, Сид Хэйг, Ричард Дженкинс, Кэтрин Моррис

Описание: Четверо людей приезжают на дикий запад, для того чтобы убрать кровожадных каннибалов из пещер. Ведь население напугано. Каждую ночь эти монстры приходят и забирают самых слабых, только для того, чтобы полакомиться трупами.



Видео: 1108x464 (2,40:1), 23.976 fps, AVC MPEG-4 (x264), High@L4,1 ~ 2 258 Кбит/сек, 0.183 bit/pixel

Аудио#1: Русский: 48 kHz/16 bits, AC3 Dolby Digital, 3/2 (L,C,R,l,r) + LFE ch, ~ 448 kbps avg [Профессиональный (полное дублирование), Лицензия]
Аудио#2: Английский: 48 kHz/16 bits, AC3 Dolby Digital, 3/2 (L,C,R,l,r) + LFE ch, ~ 448 kbps avg [Оригинал]






Общее
Уникальный идентификатор : 205904935605086509708241732217212869104 (0x9AE7D91E41232D5CB1734EE66C6D99F0)
Полное имя : E:\Закачка-2\Kostyanoy.Tomagavk.2015.DUAL.BDRip.x264.-HELLYWOOD.mkv
Формат : Matroska
Версия формата : Version 4 / Version 2
Размер файла : 2,91 Гбайт
Продолжительность : 2 ч. 12 м.
Общий поток : 3156 Кбит/сек
Название фильма : Bone Tomahawk (2015)
Дата кодирования : UTC 2018-06-10 16:46:20
Программа кодирования : mkvmerge v5.9.0 ('On The Loose') built on Dec 15 2012 16:39:58
Библиотека кодирования : libebml v1.3.0 + libmatroska v1.4.0

Видео
Идентификатор : 1
Формат : AVC
Формат/Информация : Advanced Video Codec
Профиль формата :
Параметр CABAC формата : Да
Параметр ReFrames формата : 10 кадров
Идентификатор кодека : V_MPEG4/ISO/AVC
Продолжительность : 2 ч. 12 м.
Битрейт : 2258 Кбит/сек
Ширина : 1108 пикселей
Высота : 464 пикселя
Соотношение сторон : 2,40:1
Режим частоты кадров : Постоянный
Частота кадров : 23,976 кадра/сек
Цветовое пространство : YUV
Субдискретизация насыщенности : 4:2:0
Битовая глубина : 8 бит
Тип развёртки : Прогрессивная
Бит/(Пиксели*Кадры) : 0.183
Размер потока : 2,03 Гбайт (70%)
Заголовок : potroks
Библиотека кодирования : x264 core 146 r2538 121396c
Настройки программы : cabac=1 / ref=10 / deblock=1:-2:-2 / analyse=0x3:0x113 / me=umh / subme=11 / psy=1 / psy_rd=1.00:0.05 / mixed_ref=1 / me_range=48 / chroma_me=1 / trellis=2 / 8x8dct=1 / cqm=0 / deadzone=21,11 / fast_pskip=0 / chroma_qp_offset=-3 / threads=9 / lookahead_threads=2 / sliced_threads=0 / nr=0 / decimate=1 / interlaced=0 / bluray_compat=0 / constrained_intra=0 / bframes=11 / b_pyramid=2 / b_adapt=2 / b_bias=0 / direct=3 / weightb=1 / open_gop=0 / weightp=2 / keyint=240 / keyint_min=23 / scenecut=40 / intra_refresh=0 / rc_lookahead=60 / rc=2pass / mbtree=0 / bitrate=2258 / ratetol=1.0 / qcomp=0.70 / qpmin=0 / qpmax=69 / qpstep=4 / cplxblur=20.0 / qblur=0.5 / vbv_maxrate=14000 / vbv_bufsize=14000 / nal_hrd=none / filler=0 / ip_ratio=1.40 / pb_ratio=1.30 / aq=1:0.80
Язык : English
Default : Да
Forced : Нет

Аудио #1
Идентификатор : 2
Формат : AC-3
Формат/Информация : Audio Coding 3
Расширение режима : CM (complete main)
Параметр Endianness формата : Big
Идентификатор кодека : A_AC3
Продолжительность : 2 ч. 12 м.
Вид битрейта : Постоянный
Битрейт : 448 Кбит/сек
Каналы : 6 каналов
Расположение каналов : Front: L C R, Side: L R, LFE
Частота : 48,0 КГц
Частота кадров : 31,250 кадров/сек (1536 spf)
Метод сжатия : С потерями
Размер потока : 423 Мбайт (14%)
Заголовок : Dub | DD 5.1 @ 448 kbps - R5
Язык : Russian
Default : Да
Forced : Нет

Аудио #2
Идентификатор : 3
Формат : AC-3
Формат/Информация : Audio Coding 3
Расширение режима : CM (complete main)
Параметр Endianness формата : Big
Идентификатор кодека : A_AC3
Продолжительность : 2 ч. 12 м.
Вид битрейта : Постоянный
Битрейт : 448 Кбит/сек
Каналы : 6 каналов
Расположение каналов : Front: L C R, Side: L R, LFE
Частота : 48,0 КГц
Частота кадров : 31,250 кадров/сек (1536 spf)
Метод сжатия : С потерями
Размер потока : 423 Мбайт (14%)
Заголовок : Original | DD 5.1 @ 448 kbps
Язык : English
Default : Нет
Forced : Нет

Текст #1
Идентификатор : 4
Формат : UTF-8
Идентификатор кодека : S_TEXT/UTF8
Идентификатор кодека/Информация : UTF-8 Plain Text
Заголовок : Notabenoid
Язык : Russian
Default : Нет
Forced : Нет

Текст #2
Идентификатор : 5
Формат : UTF-8
Идентификатор кодека : S_TEXT/UTF8
Идентификатор кодека/Информация : UTF-8 Plain Text
Заголовок : Full
Язык : English
Default : Нет
Forced : Нет

Текст #3
Идентификатор : 6
Формат : UTF-8
Идентификатор кодека : S_TEXT/UTF8
Идентификатор кодека/Информация : UTF-8 Plain Text
Заголовок : SDH
Язык : English
Default : Нет
Forced : Нет

Меню
00:00:00.000 : en:Chapter1 => Buddy and Purvis
00:09:52.926 : en:Chapter2 => Sheriff Hunt
00:24:26.340 : en:Chapter3 => Hunt and Arthur
00:34:52.382 : en:Chapter4 => A Rescue Plan
00:46:55.271 : en:Chapter5 => The First Night
01:02:34.793 : en:Chapter6 => Attacked
01:12:38.646 : en:Chapter7 => Another Setback
01:27:47.512 : en:Chapter8 => Prepare for Battle
01:34:12.772 : en:Chapter9 => Deputy Nick
01:46:46.025 : en:Chapter10 => Arthur to the Rescue
01:56:19.389 : en:Chapter11 => A Last Fight for Freedom
02:04:48.398 : en:Chapter12 => Credits






   Похожие торренты   Торрент   Размер 
В этой теме нет новых непрочитанных сообщений. Костяной томагавк / Bone Tomahawk (С. Крэйг Залер) [2015, вестерн, ужасы, BDRip-AVC] DUB

2 | 0

1.52 ГБ

В этой теме нет новых непрочитанных сообщений. Костяной томагавк / Bone Tomahawk (2015) BDRip от Twi7ter | L

1882 | 43

1.46 ГБ

В этой теме нет новых непрочитанных сообщений. Костяной томагавк / Bone Tomahawk (2015) BDRip 720p от Scarabey | L

202 | 22

4.9 ГБ

В этой теме нет новых непрочитанных сообщений. Костяной томагавк / Bone Tomahawk (2015) BDRip от HQ-ViDEO | iTunes

52 | 5

2.18 ГБ

В этой теме нет новых непрочитанных сообщений. Костяной томагавк / Bone Tomahawk (2015) BDRip 720p | iTunes

836 | 44

6.32 ГБ

В этой теме нет новых непрочитанных сообщений. Костяной томагавк / Bone Tomahawk (2015) BDRip 1080p | iTunes

763 | 49

11.34 ГБ

В этой теме нет новых непрочитанных сообщений. Костяной томагавк / Bone Tomahawk (2015) BDRip от Twi7ter | iTunes

2793 | 115

1.46 ГБ




Вы не можете начинать темы
Вы не можете отвечать на сообщения
Вы не можете редактировать свои сообщения
Вы не можете удалять свои сообщения
Вы не можете добавлять вложения

Перейти:  
 Вход
ppkBB3cker v.2 © 2008-2014 @ PPK
[ Time : 1.232s | 18 Queries | GZIP : Off ]

cron