img image001 image001 image001 image001 image001 image001 image001 image001 image001 image001 image001 image001 image001 image001 image001 image001

Planets Sun Sun Sun
Статистика раздачи
Автор: Снежана | Размер: 1.45 ГБ | Добавлен: 12 июн 2018
Раздают: 107    Качают: 14
Скачать торрент
Скачать торрент
Описание торрента

СообщениеДобавлено: 12 июн 2018 

Код 211 / 211


Перевод: Любительский (многоголосый закадровый) [@MUZOBOZ@], субтитры: отсутствуют
Формат: WEBDLRip-AVC, MKV, H.264, AC3
Страна: США
Режиссер: Йорк Шеклтон
Жанр: боевик, драма, история
Продолжительность: 01:27:00
Год выпуска: 2018
В ролях: Дуэйн Камерон, Ори Феффер, Кори Хардрикт, Марк Баснайт, Аманда Серни, Уэстон Кейдж, Николас Кейдж, Софи Скелтон, Майкл Беллисарио, Майкл Рейни мл.

Описание: Фильм основан на одном из самых продолжительных и кровопролитных реальных событий в истории полиции. Офицер Майк Чендлер и молодой гражданский, оказываются недостаточно подготовленными и слабыми, когда судьба бросает их в круговорот опасных событий, совершенных бесстрашной бандой высококвалифицированных и вооруженных бандитов.



Видео: 1024x544 (1.882), 23.976 fps, AVC MPEG-4 (x264), ~1808 kbps avg, 0.135 bits/(pixel*frame)
Аудио #1: Русский:48 kHz, AC3 Dolby Digital, 2/0 (L,R) ch, ~192 kbps [Любительский (многоголосый закадровый)]
Аудио #2: Английский:48 kHz, AC3 Dolby Digital, 3/2 (L,C,R,l,r) + LFE ch, ~ 384 kbps avg [Оригинал]

РЕКЛАМЫ НЕТ !
General
Unique ID : 183080936422013157576967622986152038535 (0x89BC1B13C0D6C22FA1ED2B0E74385087)
Complete name : C:\Users\Юрик\Desktop\211.2018_[tfile.ru].mkv
Format : Matroska
Format version : Version 4 / Version 2
File size : 1.45 GiB
Duration : 1 h 27 min
Overall bit rate : 2 386 kb/s
Encoded date : UTC 2018-06-10 17:44:04
Writing application : mkvmerge v7.4.0 ('Circles') 64bit built on Dec 12 2014 12:19:56
Writing library : libebml v1.3.0 + libmatroska v1.4.1

Video
ID : 1
Format : AVC
Format/Info : Advanced Video Codec
Format profile :
Format settings, CABAC : Yes
Format settings, RefFrames : 2 frames
Codec ID : V_MPEG4/ISO/AVC
Duration : 1 h 27 min
Bit rate : 1 808 kb/s
Width : 1 024 pixels
Height : 544 pixels
Display aspect ratio : 1.882
Frame rate mode : Constant
Frame rate : 23.976 (24000/1001) FPS
Color space : YUV
Chroma subsampling : 4:2:0
Bit depth : 8 bits
Scan type : Progressive
Bits/(Pixel*Frame) : 0.135
Stream size : 1.10 GiB (76%)
Language : English
Default : Yes
Forced : No

Audio #1
ID : 2
Format : AC-3
Format/Info : Audio Coding 3
Format settings, Endianness : Big
Codec ID : A_AC3
Duration : 1 h 27 min
Bit rate mode : Constant
Bit rate : 192 kb/s
Channel(s) : 2 channels
Channel positions : Front: L R
Sampling rate : 48.0 kHz
Frame rate : 31.250 FPS (1536 SPF)
Bit depth : 16 bits
Compression mode : Lossy
Stream size : 120 MiB (8%)
Language : Russian
Service kind : Complete Main
Default : Yes
Forced : No

Audio #2
ID : 3
Format : AC-3
Format/Info : Audio Coding 3
Format settings, Endianness : Big
Codec ID : A_AC3
Duration : 1 h 27 min
Bit rate mode : Constant
Bit rate : 384 kb/s
Channel(s) : 6 channels
Channel positions : Front: L C R, Side: L R, LFE
Sampling rate : 48.0 kHz
Frame rate : 31.250 FPS (1536 SPF)
Bit depth : 16 bits
Compression mode : Lossy
Stream size : 239 MiB (16%)
Service kind : Complete Main
Default : No
Forced : No













   Похожие торренты   Торрент   Размер 
В этой теме нет новых непрочитанных сообщений. Код 211 / 211 (Йорк Шеклтон) [2018, боевик, история, драма, WEBDLRip] MVO

33 | 0

1.32 ГБ

В этой теме нет новых непрочитанных сообщений. Код 211 / 211 (Йорк Шеклтон) [2018, боевик, драма, WEBDLRip] MVO

95 | 4

1.37 ГБ

В этой теме нет новых непрочитанных сообщений. Парману: История Похрана / Parmanu: The Story of Pokhran (Абхишек Шарма) [2018, боевик, драма, история, WEBDLRip] MVO

10 | 0

1.45 ГБ

В этой теме нет новых непрочитанных сообщений. Затерянный город Z / The Lost City of Z (Джеймс Грэй) [2016, боевик, драма, приключения, биография, история, WEBDLRip] DUB

8 | 0

2.05 ГБ

В этой теме нет новых непрочитанных сообщений. Золотой сон / Goldeun seulreombeo (Но Дон-сок) [2018, боевик, драма, триллер, WEBDLRip] MVO

18 | 2

1.52 ГБ

В этой теме нет новых непрочитанных сообщений. Сторонник / Dokjeon (Ли Хэ-ён) [2018, криминал, драма, боевик, триллер, WEBDLRip] MVO

19 | 0

1.35 ГБ

В этой теме нет новых непрочитанных сообщений. Чёрные воды / Black Water (Паша Патрики) [2018, боевик, драма, WEBDLRip] DVO

69 | 0

1.46 ГБ




Вы не можете начинать темы
Вы не можете отвечать на сообщения
Вы не можете редактировать свои сообщения
Вы не можете удалять свои сообщения
Вы не можете добавлять вложения

Перейти:  
 Вход
ppkBB3cker v.2 © 2008-2014 @ PPK
[ Time : 0.034s | 18 Queries | GZIP : Off ]

cron