img image001 image001 image001 image001 image001 image001 image001 image001 image001 image001 image001 image001 image001 image001 image001 image001

Planets Sun Sun Sun
Статистика раздачи
Автор: Снежана | Размер: 2.02 ГБ | Добавлен: 12 июн 2018
Раздают: 12    Качают: 0
Скачать торрент
Скачать торрент
Описание торрента

СообщениеДобавлено: 12 июн 2018 

Кто там / Knock Knock


Перевод: Профессиональный (полное дублирование) Лицензия R5
Cубтитры: Русские, английские
Формат: BDRip-AVC, MKV, H.264, AC3
Страна: Чили, США
Режиссер: Элай Рот
Жанр: триллер
Продолжительность: 01:39:20
Год выпуска: 2015
В ролях: Киану Ривз, Лоренца Иззо, Ана де Армас, Игнасия Алламанд, Аарон Барнс, Коллин Кэмп

Описание: Отправив семью за город, архитектор Эван остается на выходных дома один доделывать срочный проект.
К нему стучатся две милые молодые девушки лет двадцати, насквозь промокшие и заблудившиеся. Эван не мог предположить, что протянутая рука помощи обернется для него чередой изощренных издевательств, изысканных пыток и медленного садистского уничтожения семьи…




Видео: 1024x428 (2,40:1), 23.976 fps, AVC MPEG-4 (x264), High@L4,1 ~ 2 010 kb/s, 0.191 bit/pixel

Аудио#1: Русский: 48 kHz/16 bits, AC3 Dolby Digital, 3/2 (L,C,R,l,r) + LFE ch, ~ 448 kbps avg [Профессиональный (полное дублирование), Лицензия]
Аудио#2: Английский: 48 kHz/16 bits, AC3 Dolby Digital, 3/2 (L,C,R,l,r) + LFE ch, ~ 448 kbps avg [Оригинал]





Unique ID : 203141778907818675112278366653313087199 (0x98D3AEF98F112B3E8A448B8135AA76DF)
Complete name : D:Knock.Knock.2015.Dub.BDRip.AVC.ExKinoRay.mkv
Format : Matroska
Format version : Version 2
File size : 2.02 GiB
Duration : 1 h 39 min
Overall bit rate : 2 905 kb/s
Movie name : Knock Knock 2015 from ExKinoRay
Encoded date : UTC 2018-06-10 21:05:46
Writing application : mkvmerge v5.6.0 ('Kenya Kane') built on May 27 2012 16:44:04
Writing library : libebml v1.2.3 + libmatroska v1.3.0

Video
ID : 1
Format : AVC
Format/Info : Advanced Video Codec
Format profile :
Format settings, CABAC : Yes
Format settings, ReFrames : 12 frames
Codec ID : V_MPEG4/ISO/AVC
Duration : 1 h 39 min
Bit rate : 2 010 kb/s
Width : 1 024 pixels
Height : 428 pixels
Display aspect ratio : 2.40:1
Frame rate mode : Constant
Frame rate : 23.976 (23976/1000) FPS
Color space : YUV
Chroma subsampling : 4:2:0
Bit depth : 8 bits
Scan type : Progressive
Bits/(Pixel*Frame) : 0.191
Stream size : 1.35 GiB (67%)
Title : Enigma
Writing library : x264 core 152 r2851 ba24899
Encoding settings : cabac=1 / ref=12 / deblock=1:-2:-2 / analyse=0x3:0x113 / me=umh / subme=11 / psy=1 / psy_rd=1.00:0.10 / mixed_ref=1 / me_range=32 / chroma_me=1 / trellis=2 / 8x8dct=1 / cqm=0 / deadzone=21,11 / fast_pskip=0 / chroma_qp_offset=-3 / threads=12 / lookahead_threads=3 / sliced_threads=0 / nr=0 / decimate=0 / interlaced=0 / bluray_compat=0 / constrained_intra=0 / bframes=12 / b_pyramid=2 / b_adapt=2 / b_bias=0 / direct=3 / weightb=1 / open_gop=0 / weightp=2 / keyint=240 / keyint_min=23 / scenecut=40 / intra_refresh=0 / rc_lookahead=40 / rc=2pass / mbtree=0 / bitrate=2010 / ratetol=1.0 / qcomp=0.65 / qpmin=0 / qpmax=51 / qpstep=4 / cplxblur=20.0 / qblur=0.5 / vbv_maxrate=50000 / vbv_bufsize=62500 / nal_hrd=none / filler=0 / ip_ratio=1.40 / pb_ratio=1.30 / aq=3:0.90
Language : English
Default : Yes
Forced : No
Color range : Limited
Color primaries : BT.709
Transfer characteristics : BT.709
Matrix coefficients : BT.709

Audio #1
ID : 2
Format : AC-3
Format/Info : Audio Coding 3
Mode extension : CM (complete main)
Format settings, Endianness : Big
Codec ID : A_AC3
Duration : 1 h 39 min
Bit rate mode : Constant
Bit rate : 448 kb/s
Channel(s) : 6 channels
Channel positions : Front: L C R, Side: L R, LFE
Sampling rate : 48.0 kHz
Frame rate : 31.250 FPS (1536 spf)
Compression mode : Lossy
Stream size : 318 MiB (15%)
Title : Dub (R5)
Language : Russian
Default : Yes
Forced : No

Audio #2
ID : 3
Format : AC-3
Format/Info : Audio Coding 3
Mode extension : CM (complete main)
Format settings, Endianness : Big
Codec ID : A_AC3
Duration : 1 h 39 min
Bit rate mode : Constant
Bit rate : 448 kb/s
Channel(s) : 6 channels
Channel positions : Front: L C R, Side: L R, LFE
Sampling rate : 48.0 kHz
Frame rate : 31.250 FPS (1536 spf)
Compression mode : Lossy
Stream size : 318 MiB (15%)
Language : English
Default : No
Forced : No

Text #1
ID : 4
Format : UTF-8
Codec ID : S_TEXT/UTF8
Codec ID/Info : UTF-8 Plain Text
Title : Full
Language : Russian
Default : No
Forced : No

Text #2
ID : 5
Format : UTF-8
Codec ID : S_TEXT/UTF8
Codec ID/Info : UTF-8 Plain Text
Language : English
Default : No
Forced : No

Menu
00:00:00.000 : en:00:00:00.000
00:06:31.015 : en:00:06:31.015
00:12:59.987 : en:00:12:59.987
00:20:07.247 : en:00:20:07.247
00:27:20.472 : en:00:27:20.472
00:34:42.455 : en:00:34:42.455
00:42:41.934 : en:00:42:41.934
00:52:19.678 : en:00:52:19.678
01:01:50.081 : en:01:01:50.081
01:13:45.796 : en:01:13:45.796
01:25:48.810 : en:01:25:48.810
01:35:01.278 : en:01:35:01.278
01:39:19.536 : en:01:39:19.536





   Похожие торренты   Торрент   Размер 
В этой теме нет новых непрочитанных сообщений. Кто там / Knock Knock (Элай Рот) [2015, триллер, BDRip] DUB

21 | 0

1.46 ГБ

В этой теме нет новых непрочитанных сообщений. Кто там / Knock Knock (Элай Рот) [2015, триллер, HDRip] DUB

1364 | 21

1.46 ГБ

В этой теме нет новых непрочитанных сообщений. Кто там / Knock Knock (2015) BDRip 720p | Чистый звук

1742 | 365

3.93 ГБ

В этой теме нет новых непрочитанных сообщений. Кто там / Knock Knock (2015) BDRip 720p | Чистый звук

1120 | 108

4.5 ГБ

В этой теме нет новых непрочитанных сообщений. Кто там / Knock Knock (2015) BDRip 720p | iTunes

1023 | 48

5 ГБ

В этой теме нет новых непрочитанных сообщений. Кто там? / Knock Knock (2015) BDRip 720p от NovaLan | L1

122 | 10

4.67 ГБ

В этой теме нет новых непрочитанных сообщений. Кто там? / Knock Knock (2015) BDRip 1080p от NovaLan | L1

392 | 53

7.96 ГБ




Вы не можете начинать темы
Вы не можете отвечать на сообщения
Вы не можете редактировать свои сообщения
Вы не можете удалять свои сообщения
Вы не можете добавлять вложения

Перейти:  
 Вход
ppkBB3cker v.2 © 2008-2014 @ PPK
[ Time : 0.050s | 19 Queries | GZIP : Off ]

cron