img image001 image001 image001 image001 image001 image001 image001 image001 image001 image001 image001 image001 image001 image001 image001 image001

Planets Sun Sun Sun
Статистика раздачи
Автор: Снежана | Размер: 2.13 ГБ | Добавлен: 12 июн 2018
Раздают: 21    Качают: 0
Скачать торрент
Скачать торрент
Описание торрента

СообщениеДобавлено: 12 июн 2018 

Меган Ливи / Megan Leavey


Перевод: Профессиональный (многоголосый, закадровый) iTunes
Cубтитры: Aнглийские
Формат: BDRip-AVC, MKV, H.264, AC3
Страна: США
Режиссер: Габриэла Каупертвэйте
Жанр: драма, военный, биография
Продолжительность: 01:56:36
Год выпуска: 2017
В ролях: Кейт Мара, Иди Фалько, Алиса Харрис, Ник Мадрик, Джейсон Тернер, Саша Морфоу

Описание: Американская военнослужащая Меган Ливи со служебной собакой проходит службу в Ираке, где находят взрывные устройства.



Видео: 1032x432 (2,40:1), 23.976 fps, AVC MPEG-4 (x264), High@L4,1 ~ 1780 Кбит/сек, 0.167 bit/pixel

Аудио#1: Русский: 48 kHz/16 bits, AC3 Dolby Digital, 3/2 (L,C,R,l,r) + LFE ch, ~ 384 kbps avg [Профессиональный (многоголосый, закадровый), iTunes]
Аудио#2: Английский: 48 kHz/16 bits, AC3 Dolby Digital, 3/2 (L,C,R,l,r) + LFE ch, ~ 448 kbps avg [Оригинал]






Общее
Уникальный идентификатор : 232902827707947220813700787244249703104 (0xAF3773F7E8580C74A20CFB9719B4E2C0)
Полное имя : E:\Закачка-2\Megan.Livi.2017.DUAL.BDRip.x264.-HELLYWOOD.mkv
Формат : Matroska
Версия формата : Version 4 / Version 2
Размер файла : 2,13 Гбайт
Продолжительность : 1 ч. 56 м.
Общий поток : 2614 Кбит/сек
Название фильма : Megan Leavey (2017)
Дата кодирования : UTC 2018-06-11 03:01:56
Программа кодирования : mkvmerge v5.9.0 ('On The Loose') built on Dec 15 2012 16:39:58
Библиотека кодирования : libebml v1.3.0 + libmatroska v1.4.0

Видео
Идентификатор : 1
Формат : AVC
Формат/Информация : Advanced Video Codec
Профиль формата :
Параметр CABAC формата : Да
Параметр ReFrames формата : 10 кадров
Идентификатор кодека : V_MPEG4/ISO/AVC
Продолжительность : 1 ч. 56 м.
Битрейт : 1780 Кбит/сек
Ширина : 1032 пикселя
Высота : 432 пикселя
Соотношение сторон : 2,40:1
Режим частоты кадров : Постоянный
Частота кадров : 23,976 (24000/1001) кадра/сек
Цветовое пространство : YUV
Субдискретизация насыщенности : 4:2:0
Битовая глубина : 8 бит
Тип развёртки : Прогрессивная
Бит/(Пиксели*Кадры) : 0.167
Размер потока : 1,41 Гбайт (66%)
Заголовок : potroks
Библиотека кодирования : x264 core 155 r2901M 7d0ff22
Настройки программы : cabac=1 / ref=10 / deblock=1:-1:-1 / analyse=0x3:0x113 / me=umh / subme=11 / psy=1 / psy_rd=1.00:0.05 / mixed_ref=1 / me_range=48 / chroma_me=1 / trellis=2 / 8x8dct=1 / cqm=0 / deadzone=21,11 / fast_pskip=0 / chroma_qp_offset=-3 / threads=9 / lookahead_threads=2 / sliced_threads=0 / nr=0 / decimate=0 / interlaced=0 / bluray_compat=0 / constrained_intra=0 / bframes=12 / b_pyramid=2 / b_adapt=2 / b_bias=0 / direct=3 / weightb=1 / open_gop=0 / weightp=2 / keyint=240 / keyint_min=23 / scenecut=40 / intra_refresh=0 / rc_lookahead=130 / rc=2pass / mbtree=0 / bitrate=1780 / ratetol=1.0 / qcomp=0.70 / qpmin=0 / qpmax=69 / qpstep=4 / cplxblur=20.0 / qblur=0.5 / vbv_maxrate=50000 / vbv_bufsize=50000 / nal_hrd=none / filler=0 / ip_ratio=1.40 / pb_ratio=1.30 / aq=2:0.80
Язык : English
Default : Да
Forced : Нет

Аудио #1
Идентификатор : 2
Формат : AC-3
Формат/Информация : Audio Coding 3
Расширение режима : CM (complete main)
Параметр Endianness формата : Big
Идентификатор кодека : A_AC3
Продолжительность : 1 ч. 56 м.
Вид битрейта : Постоянный
Битрейт : 384 Кбит/сек
Каналы : 6 каналов
Расположение каналов : Front: L C R, Side: L R, LFE
Частота : 48,0 КГц
Частота кадров : 31,250 кадров/сек (1536 spf)
Метод сжатия : С потерями
Размер потока : 320 Мбайт (15%)
Заголовок : MVO | DD 5.1 @ 384 kbps - iTunes
Язык : Russian
Default : Да
Forced : Нет

Аудио #2
Идентификатор : 3
Формат : AC-3
Формат/Информация : Audio Coding 3
Расширение режима : CM (complete main)
Параметр Endianness формата : Big
Идентификатор кодека : A_AC3
Продолжительность : 1 ч. 56 м.
Вид битрейта : Постоянный
Битрейт : 448 Кбит/сек
Каналы : 6 каналов
Расположение каналов : Front: L C R, Side: L R, LFE
Частота : 48,0 КГц
Частота кадров : 31,250 кадров/сек (1536 spf)
Метод сжатия : С потерями
Размер потока : 374 Мбайт (17%)
Заголовок : Original | DD 5.1 @ 448 kbps
Язык : English
Default : Нет
Forced : Нет

Текст #1
Идентификатор : 4
Формат : UTF-8
Идентификатор кодека : S_TEXT/UTF8
Идентификатор кодека/Информация : UTF-8 Plain Text
Заголовок : Full
Язык : English
Default : Нет
Forced : Нет

Текст #2
Идентификатор : 5
Формат : UTF-8
Идентификатор кодека : S_TEXT/UTF8
Идентификатор кодека/Информация : UTF-8 Plain Text
Заголовок : SDH
Язык : English
Default : Нет
Forced : Нет

Текст #3
Идентификатор : 6
Формат : UTF-8
Идентификатор кодека : S_TEXT/UTF8
Идентификатор кодека/Информация : UTF-8 Plain Text
Заголовок : SDH-Colored
Язык : English
Default : Нет
Forced : Нет

Меню
00:00:00.000 : :Chapter 01
00:04:27.767 : :Chapter 02
00:08:12.283 : :Chapter 03
00:15:31.263 : :Chapter 04
00:20:05.787 : :Chapter 05
00:27:39.866 : :Chapter 06
00:34:44.123 : :Chapter 07
00:38:48.826 : :Chapter 08
00:45:11.792 : :Chapter 09
00:52:07.874 : :Chapter 10
00:58:51.194 : :Chapter 11
01:06:28.150 : :Chapter 12
01:11:44.758 : :Chapter 13
01:17:19.718 : :Chapter 14
01:23:28.586 : :Chapter 15
01:28:38.521 : :Chapter 16
01:34:44.053 : :Chapter 17
01:39:33.133 : :Chapter 18
01:44:29.513 : :Chapter 19
01:48:39.971 : :Chapter 20
01:56:36.447 : :Chapter 21






   Похожие торренты   Торрент   Размер 
В этой теме нет новых непрочитанных сообщений. Меган Ливи / Megan Leavey (Габриэла Каупертвэйте) [2017, драма, военный, биография, BDRip] MVO / Драмы

214 | 12

1.41 ГБ

В этой теме нет новых непрочитанных сообщений. Меган Ливи / Megan Leavey (Габриэла Каупертвэйте) [2017, драма, военный, биография, HDRip] MVO / Драмы

91 | 6

1.39 ГБ

В этой теме нет новых непрочитанных сообщений. Меган Ливи / Megan Leavey (2017) BDRip 720p | L

99 | 6

3.71 ГБ

В этой теме нет новых непрочитанных сообщений. Меган Ливи / Megan Leavey (2017) HDRip | L

178 | 14

1.45 ГБ

В этой теме нет новых непрочитанных сообщений. Темные времена / Darkest Hour (Джо Райт) [2017, драма, военный, биография, история, BDRip] DUB

29 | 6

2.18 ГБ

В этой теме нет новых непрочитанных сообщений. Темные времена / Darkest Hour (Джо Райт) [2017, драма, военный, биография, история, BDRip] DUB

56 | 5

1.46 ГБ

В этой теме нет новых непрочитанных сообщений. Жена смотрителя зоопарка / The Zookeeper's Wife (Ники Каро ) [2017, драма, военный, биография, история , BDRip-AVC] DUB

6 | 0

1.4 ГБ




Вы не можете начинать темы
Вы не можете отвечать на сообщения
Вы не можете редактировать свои сообщения
Вы не можете удалять свои сообщения
Вы не можете добавлять вложения

Перейти:  
 Вход
ppkBB3cker v.2 © 2008-2014 @ PPK
[ Time : 0.034s | 18 Queries | GZIP : Off ]

cron