img image001 image001 image001 image001 image001 image001 image001 image001 image001 image001 image001 image001 image001 image001 image001 image001

Planets Sun Sun Sun
Статистика раздачи
Автор: Снежана | Размер: 4 ГБ | Добавлен: 12 июн 2018
Раздают: 0    Качают: 0
Скачать торрент
Скачать торрент
Описание торрента

СообщениеДобавлено: 12 июн 2018 

Окно спальни / The Bedroom Window

Перевод: Профессиональный (полное дублирование)
Субтитры: Русские, английские
Формат: WEB-DLRip-AVC, MKV, H.264, AC3/AAC
Страна: США
Режиссер: Кёртис Хэнсон
Жанр: триллер, криминал, детектив
Продолжительность: 01:53:29
Год выпуска: 1987

В ролях: Стив Гуттенберг, Элизабет МакГоверн, Изабель Юппер, Пол Шенар, Карл Ламбли, Уоллес Шоун, Фредерик Коффин, Брэд Гринквист, Роберт Шенккан, Мори Чайкин

Описание: Очаровательная любовница Терри Ламберта — жена его босса Сильвия. Однажды ночью она выглядывает из окна спальни Терри и становится свидетельницей нападения на молодую женщину. Чтобы не скомпрометировать Сильвию Терри соглашается выступить вместо нее свидетелем, но неожиданно становится в глазах полиции главным подозреваемым.
Его обвиняют в серии жестоких убийств. Для Терри остается единственный путь к спасению — предпринять собственное расследование в попытке найти настоящего убийцу. А единственный человек, который готов помочь Терри — Дениз, та самая жертва нападения, которое произошло под окном его спальни…




Видео: 1280x536 (2.40:1), 23.976 fps, AVC MPEG-4 (H.264), ~4000 kbps, 0.248 bit/pixel
Аудио #1: Русский:48 kHz, AC3 Dolby Digital, 2 ch, ~224 kbps [Профессиональный (полное дублирование)]
Аудио #2: Русский: 48 kHz, AC3 Dolby Digital, 2 ch, ~192 kbps [Профессиональный (двухголосый)] CP-Digital
Аудио #3: Русский: 48 kHz, AC3 Dolby Digital, 2 ch, ~224 kbps [Профессиональный (двухголосый)] Екатеринбург Арт
Аудио #4: Русский: 48 kHz, AC3 Dolby Digital, 2 ch, ~192 kbps [Профессиональный (двухголосый)] НТВ
Аудио #5: Английский: 48 kHz, AАС-LC, 2 ch, ~128 kbps [Оригинал]

Формат : Matroska
Версия формата : Version 4 / Version 2
Размер файла : 4,00 Гбайт
Продолжительность : 1 ч. 53 м.
Общий поток : 5045 Кбит/сек
Название фильма :
Дата кодирования : UTC 2017-06-20 07:37:13
Программа кодирования : mkvmerge v12.0.0 ('Trust / Lust') 64bit
Библиотека кодирования : libebml v1.3.4 + libmatroska v1.4.5

Видео
Идентификатор : 1
Формат : AVC
Формат/Информация : Advanced Video Codec
Профиль формата :
Параметр CABAC формата : Нет
Параметр ReFrames формата : 2 кадра
Идентификатор кодека : V_MPEG4/ISO/AVC
Продолжительность : 1 ч. 53 м.
Ширина : 1280 пикселей
Высота : 536 пикселей
Соотношение сторон : 2,40:1
Режим частоты кадров : Постоянный
Частота кадров : 23,976 кадра/сек
Цветовое пространство : YUV
Субдискретизация насыщенности : 4:2:0
Битовая глубина : 8 бит
Тип развёртки : Прогрессивная
Язык : English
Default : Да
Forced : Нет
Основные цвета : BT.709
Характеристики трансфера : BT.709
Коэффициенты матрицы : BT.709

Аудио #1
Идентификатор : 2
Формат : AC-3
Формат/Информация : Audio Coding 3
Расширение режима : CM (complete main)
Параметр Endianness формата : Big
Идентификатор кодека : A_AC3
Продолжительность : 1 ч. 53 м.
Вид битрейта : Постоянный
Битрейт : 224 Кбит/сек
Каналы : 2 канала
Расположение каналов : Front: L R
Частота : 48,0 КГц
Битовая глубина : 16 бит
Метод сжатия : С потерями
Размер потока : 182 Мбайт (4%)
Заголовок : Мосфильм
Язык : Russian
Default : Да
Forced : Нет

Аудио #2
Идентификатор : 3
Формат : AC-3
Формат/Информация : Audio Coding 3
Расширение режима : CM (complete main)
Параметр Endianness формата : Big
Идентификатор кодека : A_AC3
Продолжительность : 1 ч. 53 м.
Вид битрейта : Постоянный
Битрейт : 192 Кбит/сек
Каналы : 2 канала
Расположение каналов : Front: L R
Частота : 48,0 КГц
Битовая глубина : 16 бит
Метод сжатия : С потерями
Размер потока : 156 Мбайт (4%)
Заголовок : CP Digital
Язык : Russian
Default : Нет
Forced : Нет

Аудио #3
Идентификатор : 4
Формат : AC-3
Формат/Информация : Audio Coding 3
Расширение режима : CM (complete main)
Параметр Endianness формата : Big
Идентификатор кодека : A_AC3
Продолжительность : 1 ч. 53 м.
Вид битрейта : Постоянный
Битрейт : 224 Кбит/сек
Каналы : 2 канала
Расположение каналов : Front: L R
Частота : 48,0 КГц
Битовая глубина : 16 бит
Метод сжатия : С потерями
Размер потока : 182 Мбайт (4%)
Заголовок : Ракурс
Язык : Russian
Default : Нет
Forced : Нет

Аудио #4
Идентификатор : 5
Формат : AC-3
Формат/Информация : Audio Coding 3
Расширение режима : CM (complete main)
Параметр Endianness формата : Big
Идентификатор кодека : A_AC3
Продолжительность : 1 ч. 53 м.
Вид битрейта : Постоянный
Битрейт : 192 Кбит/сек
Каналы : 2 канала
Расположение каналов : Front: L R
Частота : 48,0 КГц
Битовая глубина : 16 бит
Метод сжатия : С потерями
Размер потока : 156 Мбайт (4%)
Заголовок : НТВ
Язык : Russian
Default : Нет
Forced : Нет

Аудио #5
Идентификатор : 6
Формат : AAC
Формат/Информация : Advanced Audio Codec
Профиль формата : LC
Идентификатор кодека : A_AAC
Продолжительность : 1 ч. 53 м.
Каналы : 2 канала
Расположение каналов : Front: L R
Частота : 48,0 КГц
Метод сжатия : С потерями
Язык : English
Default : Нет
Forced : Нет

Текст #1
Идентификатор : 7
Формат : UTF-8
Идентификатор кодека : S_TEXT/UTF8
Идентификатор кодека/Информация : UTF-8 Plain Text
Заголовок : Forced (Мосфильм)
Язык : Russian
Default : Да
Forced : Нет

Текст #2
Идентификатор : 8
Формат : UTF-8
Идентификатор кодека : S_TEXT/UTF8
Идентификатор кодека/Информация : UTF-8 Plain Text
Язык : Russian
Default : Нет
Forced : Нет

Текст #3
Идентификатор : 9
Формат : UTF-8
Идентификатор кодека : S_TEXT/UTF8
Идентификатор кодека/Информация : UTF-8 Plain Text
Язык : English
Default : Нет
Forced : Нет

Меню
00:00:00.000 : en:Main Title/Assault
00:09:57.000 : en:False Witness
00:21:03.000 : en:The Line Up
00:28:56.000 : en:Following a Hunch
00:39:42.000 : en:Star Witness
00:45:26.000 : en:The Trial
00:55:51.000 : en:Suspicion
01:07:03.000 : en:Becoming a Suspect
01:18:21.000 : en:Hiding Out
01:28:20.000 : en:The Plan
01:43:22.000 : en:Plan Gone Awry
01:50:58.000 : en:End Credits












   Похожие торренты   Торрент   Размер 
В этой теме нет новых непрочитанных сообщений. Окно спальни / The Bedroom Window (Кёртис Хэнсон) [1987, триллер, криминал, детектив, WEB-DLRip-AVC] DUB+3xDVO

4 | 0

1.46 ГБ

В этой теме нет новых непрочитанных сообщений. Окно спальни / The Bedroom Window (1987) WEB-DL 720p | P2

71 | 9

4.35 ГБ

В этой теме нет новых непрочитанных сообщений. Окно спальни / The Bedroom Window (1987) DVD9 | P

19 | 4

7.39 ГБ

В этой теме нет новых непрочитанных сообщений. Окно спальни / The Bedroom Window (1986) DVDRip-AVC

19 | 5

2.1 ГБ

В этой теме нет новых непрочитанных сообщений. Тайное окно / Secret Window (Дэвид Кепп) [2004, триллер, детектив, BDRip-AVC] DUB / Фильмы HDRip

4 | 0

2.2 ГБ

В этой теме нет новых непрочитанных сообщений. Дикая река / The River Wild (Кёртис Хэнсон) [1994, триллер, криминал, приключения, HDRip] MVO

2 | 0

1.45 ГБ

В этой теме нет новых непрочитанных сообщений. Дикая река / The River Wild (Кёртис Хэнсон) [1994, триллер, криминал, приключения, LowHDRip] MVO

2 | 0

743.28 МБ




Вы не можете начинать темы
Вы не можете отвечать на сообщения
Вы не можете редактировать свои сообщения
Вы не можете удалять свои сообщения
Вы не можете добавлять вложения

Перейти:  
 Вход
ppkBB3cker v.2 © 2008-2014 @ PPK
[ Time : 0.047s | 19 Queries | GZIP : Off ]

cron