img image001 image001 image001 image001 image001 image001 image001 image001 image001 image001 image001 image001 image001 image001 image001 image001

Planets Sun Sun Sun
Статистика раздачи
Автор: Снежана | Размер: 746.18 МБ | Добавлен: 12 июн 2018
Раздают: 18    Качают: 0
Скачать торрент
Скачать торрент
Описание торрента

СообщениеДобавлено: 12 июн 2018 

Счастливого дня смерти / Happy Death Day

Перевод: Профессиональный (полное дублирование)
Субтитры: Русские
Формат: BDRip-AVC, MKV, H.264, AAC
Страна: США
Режиссер: Кристофер Лэндон
Жанр: ужасы, триллер, детектив, комедия
Продолжительность: 01:36:11
Год выпуска: 2017

В ролях: Джессика Рот, Израэль Бруссар, Руби Модин, Лаура Клифтон, Джейсон Бэйл, Роб Мелло, Рэйчел Мэттьюз, Рэмси Андерсон, Брэйди Льюис, Фи Ву

Описание: Каждый в универе мечтал попасть на её день рождения, но праздник был безнадежно испорчен незнакомцем в маске, убившим виновницу торжества. Однако судьба преподнесла имениннице леденящий душу подарок — бесконечный запас жизней. И теперь у девушки появился шанс вычислить своего убийцу, ведь этот день будет повторяться снова и снова…



Видео: 836x350 (2.40:1), 23.976 fps, AVC MPEG-4 (H.264), ~1019 kbps, 0.145 bit/pixel
Аудио: 48 kHz, AАС-HE, 2 ch, ~64 kbps

Формат : Matroska
Версия формата : Version 4 / Version 2
Размер файла : 746 Мбайт
Продолжительность : 1 ч. 36 м.
Общий поток : 1085 Кбит/сек
Название фильма : Happy Death Day (2017) (Rip by stalkerok)
Дата кодирования : UTC 2018-02-17 17:05:25
Программа кодирования : mkvmerge v8.6.1 ('Flying') 64bit
Библиотека кодирования : libebml v1.3.3 + libmatroska v1.4.4

Видео
Идентификатор : 3
Формат : AVC
Формат/Информация : Advanced Video Codec
Профиль формата :
Параметр CABAC формата : Да
Параметр ReFrames формата : 12 кадров
Идентификатор кодека : V_MPEG4/ISO/AVC
Продолжительность : 1 ч. 36 м.
Битрейт : 1019 Кбит/сек
Ширина : 836 пикселей
Высота : 350 пикселей
Соотношение сторон : 2,40:1
Режим частоты кадров : Постоянный
Частота кадров : 23,976 (24000/1001) кадра/сек
Цветовое пространство : YUV
Субдискретизация насыщенности : 4:2:0
Битовая глубина : 8 бит
Тип развёртки : Прогрессивная
Бит/(Пиксели*Кадры) : 0.145
Размер потока : 701 Мбайт (94%)
Заголовок : Happy Death Day (2017) (Rip by stalkerok)
Библиотека кодирования : x264 core 152 r2851kMod ba24899
Настройки программы : cabac=1 / ref=12 / deblock=1:-3:-2 / analyse=0x3:0x133 / me=umh / subme=11 / psy=1 / fade_compensate=0.00 / psy_rd=1.00:0.00 / mixed_ref=1 / me_range=32 / chroma_me=1 / trellis=2 / 8x8dct=1 / cqm=0 / deadzone=21,11 / fast_pskip=0 / chroma_qp_offset=-2 / threads=11 / lookahead_threads=2 / sliced_threads=0 / nr=0 / decimate=0 / interlaced=0 / bluray_compat=0 / constrained_intra=0 / bframes=16 / b_pyramid=2 / b_adapt=2 / b_bias=0 / direct=3 / weightb=1 / open_gop=0 / weightp=2 / keyint=240 / keyint_min=23 / scenecut=40 / intra_refresh=0 / rc_lookahead=60 / rc=2pass / mbtree=0 / bitrate=1019 / ratetol=1.0 / qcomp=0.65 / qpmin=0 / qpmax=69 / qpstep=4 / cplxblur=20.0 / qblur=0.5 / vbv_maxrate=50000 / vbv_bufsize=62500 / nal_hrd=none / filler=0 / ip_ratio=1.40 / pb_ratio=1.30 / aq=3:0.93 / zones=130050,138373,q=34
Default : Да
Forced : Нет

Аудио
Идентификатор : 4
Формат : AAC
Формат/Информация : Advanced Audio Codec
Профиль формата : HE-AAC / LC
Идентификатор кодека : A_AAC
Продолжительность : 1 ч. 36 м.
Битрейт : 64,0 Кбит/сек
Каналы : 2 канала
Расположение каналов : Front: L R
Частота : 48,0 КГц / 24,0 КГц
Частота кадров : 23,438 кадра/сек (1024 spf)
Метод сжатия : С потерями
Задержка видео : 31 мс.
Размер потока : 44,0 Мбайт (6%)
Язык : Russian
Default : Да
Forced : Нет

Текст #1
Идентификатор : 1
Формат : UTF-8
Идентификатор кодека : S_TEXT/UTF8
Идентификатор кодека/Информация : UTF-8 Plain Text
Продолжительность : 1 ч. 28 м.
Битрейт : 2 бит/сек
Count of elements : 37
Размер потока : 1,34 Кбайт (0%)
Заголовок : Forced
Язык : Russian
Default : Да
Forced : Нет

Текст #2
Идентификатор : 2
Формат : UTF-8
Идентификатор кодека : S_TEXT/UTF8
Идентификатор кодека/Информация : UTF-8 Plain Text
Продолжительность : 1 ч. 28 м.
Битрейт : 88 бит/сек
Count of elements : 1280
Размер потока : 57,3 Кбайт (0%)
Язык : Russian
Default : Нет
Forced : Нет

Меню
00:00:00.000 : en:Chapter 1
00:04:54.460 : en:Chapter 2
00:10:26.000 : en:Chapter 3
00:14:10.683 : en:Chapter 4
00:21:46.722 : en:Chapter 5
00:25:08.798 : en:Chapter 6
00:29:37.859 : en:Chapter 7
00:33:09.320 : en:Chapter 8
00:37:50.142 : en:Chapter 9
00:41:46.170 : en:Chapter 10
00:44:54.191 : en:Chapter 11
00:53:07.934 : en:Chapter 12
00:57:28.361 : en:Chapter 13
01:00:18.448 : en:Chapter 14
01:07:41.557 : en:Chapter 15
01:12:16.290 : en:Chapter 16
01:16:35.090 : en:Chapter 17
01:21:17.080 : en:Chapter 18
01:27:13.645 : en:Chapter 19
01:30:24.168 : en:Chapter 20












   Похожие торренты   Торрент   Размер 
В этой теме нет новых непрочитанных сообщений. Счастливого дня смерти / Happy Death Day (Кристофер Лэндон) [2017, ужасы, триллер, детектив, комедия, BDRip-AVC] DUB

18 | 0

1.46 ГБ

В этой теме нет новых непрочитанных сообщений. Счастливого дня смерти / Happy Death Day (Кристофер Лэндон) [2017, ужасы, триллер, детектив, комедия, BDRip-AVC] DUB

20 | 0

2.18 ГБ

В этой теме нет новых непрочитанных сообщений. Счастливого дня смерти / Happy Death Day (Кристофер Лэндон) [2017, ужасы, триллер, детектив, комедия, BDRip] DUB

223 | 4

1.46 ГБ

В этой теме нет новых непрочитанных сообщений. Счастливого дня смерти / Happy Death Day (Кристофер Лэндон) [2017 , ужасы, триллер, детектив, комедия, HDRip-AVC] AVO

8 | 0

2.18 ГБ

В этой теме нет новых непрочитанных сообщений. Тетрадь смерти / Death Note (Адам Вингард) [2017, ужасы, фэнтези, триллер, детектив, приключения, WEBDLRip] MVO / Мистика

3 | 0

1.38 ГБ

В этой теме нет новых непрочитанных сообщений. Счастливого дня смерти / Happy Death Day (2017) BDRip-AVC от HELLYWOOD | A

9 | 0

1.46 ГБ

В этой теме нет новых непрочитанных сообщений. Счастливого дня смерти / Happy Death Day (2017) BDRip 1080p | iTunes

0 | 0

8.67 ГБ




Вы не можете начинать темы
Вы не можете отвечать на сообщения
Вы не можете редактировать свои сообщения
Вы не можете удалять свои сообщения
Вы не можете добавлять вложения

Перейти:  
 Вход
ppkBB3cker v.2 © 2008-2014 @ PPK
[ Time : 0.046s | 20 Queries | GZIP : Off ]

cron