img image001 image001 image001 image001 image001 image001 image001 image001 image001 image001 image001 image001 image001 image001 image001 image001

Planets Sun Sun Sun
Статистика раздачи
Автор: Снежана | Размер: 1.45 ГБ | Добавлен: 12 июн 2018
Раздают: 32    Качают: 2
Скачать торрент
Скачать торрент
Описание торрента

СообщениеДобавлено: 12 июн 2018 

Коллектор / Сборщик долгов / The Debt Collector


Перевод: Любительский (двухголосый) HiWay Grope, субтитры: отсутствуют
Формат: WEBRip-AVC, MKV, H.264, AC3
Страна: США
Режиссер: Джесси Джонсон
Жанр: Боевик
Продолжительность: 01:36:25
Год выпуска: 2018
В ролях: Скотт Эдкинс, Майкл Паре, Тони Тодд, Владимир Кулих, Роберт Раслер, Луис Мэндилор, Селина Ло, Нихан Гар, Сара Финли, Ессам Феррис и другие

Описание: Чтобы спасти свою школу, мастер смешанных боевых искусств нанимается коллектором к криминальному авторитету, но сталкивается с необходимостью адаптировать свои моральные устои к беспощадным правилам мира больших денег.



Видео: 1024x432 (2.40:1), 23.976 fps, AVC MPEG-4 (x264), ~1721 kbps avg, 0.162 bits/(pixel*frame)
Аудио: 48 kHz, AC3 Dolby Digital, 3/2 (L,C,R,l,r) + LFE ch, ~ 384 kbps

ПРИСУТСТВУЕТ РЕКЛАМА !
General
Unique ID : 105488794116249758860636461554250867175 (0x4F5C6719E01FB27CA2C695B61100E1E7)
Complete name : C:\Users\Юрик\Desktop\The.Debt.Collector.2018.720p.WEBRip-AVC_[tfile.ru].mkv
Format : Matroska
Format version : Version 2
File size : 1.45 GiB
Duration : 1 h 36 min
Overall bit rate : 2 148 kb/s
Writing application : Lavf55.12.100
Writing library : Lavf55.12.100

Video
ID : 2
Format : AVC
Format/Info : Advanced Video Codec
Format profile :
Format settings, CABAC : Yes
Format settings, RefFrames : 2 frames
Codec ID : V_MPEG4/ISO/AVC
Duration : 1 h 36 min
Bit rate : 1 721 kb/s
Width : 1 024 pixels
Height : 432 pixels
Display aspect ratio : 2.40:1
Frame rate mode : Constant
Frame rate : 23.976 (24000/1001) FPS
Color space : YUV
Chroma subsampling : 4:2:0
Bit depth : 8 bits
Scan type : Progressive
Bits/(Pixel*Frame) : 0.162
Stream size : 1.16 GiB (80%)
Language : English
Default : Yes
Forced : No

Audio
ID : 1
Format : AC-3
Format/Info : Audio Coding 3
Format settings, Endianness : Big
Codec ID : A_AC3
Duration : 1 h 36 min
Bit rate mode : Constant
Bit rate : 384 kb/s
Channel(s) : 6 channels
Channel positions : Front: L C R, Side: L R, LFE
Sampling rate : 48.0 kHz
Frame rate : 31.250 FPS (1536 SPF)
Bit depth : 16 bits
Compression mode : Lossy
Stream size : 265 MiB (18%)
Service kind : Complete Main
Default : Yes
Forced : No

















   Похожие торренты   Торрент   Размер 
В этой теме нет новых непрочитанных сообщений. Сборщик долгов / The Debt Collector (Джесси Джонсон) [2018, боевик, HDRip] MVO

42 | 4

1.37 ГБ

В этой теме нет новых непрочитанных сообщений. Коллекторы / The Debt Collector (Джесси Джонсон) [2018, боевик, BDRip] DUB / Боевики /Action

73 | 5

1.42 ГБ

В этой теме нет новых непрочитанных сообщений. Несчастный случай / Accident Man (Джесси Джонсон) [2018, боевик, триллер, криминал, HDRip] MVO

26 | 0

2.05 ГБ

В этой теме нет новых непрочитанных сообщений. Код доступа. Борис Джонсон: министр странных дел (Эфир от 31.05.2018) (ТК Звезда) [2018, документальный,биография, SATRip]

13 | 0

520.2 МБ

В этой теме нет новых непрочитанных сообщений. Флэш, 2 сезон 1-12 серии из 23 / The Flash [NewStudio] (Дэвид Наттер, Джесси Уарн) [2015-2016, фантастика, фэнтези, боевик, детектив, приключения, WEB-DLRip-AVC, P]

45 | 81

8.51 ГБ

В этой теме нет новых непрочитанных сообщений. Флэш, 2 сезон 1-11 серии из 23 / The Flash [NewStudio] (Дэвид Наттер, Джесси Уарн) [2015-2016, фантастика, фэнтези, боевик, детектив, приключения, WEB-DLRip-AVC, P]

17 | 151

7.8 ГБ

В этой теме нет новых непрочитанных сообщений. Звёздные войны: Последние джедаи / Star Wars: Episode VIII - The Last Jedi (Райан Джонсон) [2017, фантастика, фэнтези, боевик, приключения, HDRip-AVC] DUB

10 | 0

3.22 ГБ




Вы не можете начинать темы
Вы не можете отвечать на сообщения
Вы не можете редактировать свои сообщения
Вы не можете удалять свои сообщения
Вы не можете добавлять вложения

Перейти:  
cron
 Вход
ppkBB3cker v.2 © 2008-2014 @ PPK
[ Time : 0.042s | 18 Queries | GZIP : Off ]

cron