img image001 image001 image001 image001 image001 image001 image001 image001 image001 image001 image001 image001 image001 image001 image001 image001

Planets Sun Sun Sun
Статистика раздачи
Автор: Снежана | Размер: 2.18 ГБ | Добавлен: 12 июн 2018
Раздают: 8    Качают: 0
Скачать торрент
Скачать торрент
Описание торрента

СообщениеДобавлено: 12 июн 2018 

Невероятные приключения янки в Африке / Yankee Zulu

Перевод: Профессиональный (многоголосый, закадровый)
Субтитры: Русские
Формат: WEB-DLRip-AVC , MKV, H.264, AC3
Страна: ЮАР
Режиссер: Грей Хофмайр
Жанр: комедия
Продолжительность: 01:29:42
Год выпуска: 1993

В ролях: Леон Шустер, Джон Матшикиза, Уилсон Данстер, Терри Триз, Мишель Боус, Скай Свориник, Руан Мандельстам, Бобо Серитсани, Мари Майкл, Мбали Дладла

Описание: Шалости друзей — мальчишек, белого африканера и черного зулу — сделали бы честь даже легендарному Кевину из комедии «Один дома».
Жизнь надолго разлучает их, но встретившись через 25 лет, они вспоминают детство — похищают полмиллиона долларов и, преобразившись в гримерной телевидения белый в черного, а черный в белого, скрываются от преследователей




Видео: 1024x576 (16:9), 23.976 fps, AVC MPEG-4 (H.264), ~2613 kbps, 0.185 bit/pixel
Аудио #1: Русский: 48 kHz, AC3 Dolby Digital, 2 ch, ~256 kbps [Профессиональный (многоголосый, закадровый)] Хлопушка
Аудио #2: Русский:48 kHz, AC3 Dolby Digital, 6 ch, ~384 kbps [Профессиональный (двухголосый)] НТВ
Аудио #3: Английский: 48 kHz, AC3 Dolby Digital, 2 ch, ~224 kbps [Оригинал]

Format : Matroska
Format version : Version 4 / Version 2
File size : 2.18 GiB
Duration : 1 h 29 min
Overall bit rate : 3 476 kb/s
Movie name : Невероятные приключения янки в Африке
Deion : Шалости друзей — мальчишек, белого африканера и черного зулу — сделали бы честь даже легендарному Кевину из комедии «Один дома». Жизнь надолго разлучает их, но встретившись через 25 лет, они вспоминают детство — похищают полмиллиона долларов и, преобразившись в гримерной телевидения белый в черного, а черный в белого, скрываются от преследователей.
Encoded date : UTC 2018-05-25 12:30:44
Writing application : mkvmerge v23.0.0 ('The Bride Said No') 64-bit
Writing library : libebml v1.3.6 + libmatroska v1.4.9 / Lavf57.71.100
Attachments : poster.jpg

Video
ID : 1
Format : AVC
Format/Info : Advanced Video Codec
Format profile :
Format settings : CABAC / 14 Ref Frames
Format settings, CABAC : Yes
Format settings, ReFrames : 14 frames
Codec ID : V_MPEG4/ISO/AVC
Duration : 1 h 29 min
Bit rate : 2 613 kb/s
Width : 1 024 pixels
Height : 576 pixels
Display aspect ratio : 16:9
Frame rate mode : Constant
Frame rate : 23.976 (24000/1001) FPS
Color space : YUV
Chroma subsampling : 4:2:0
Bit depth : 8 bits
Scan type : Progressive
Bits/(Pixel*Frame) : 0.185
Stream size : 1.64 GiB (75%)
Title : RIP_BY_-=DoMiNo=-
Writing library : x264 core 155 r2901M 7d0ff22
Encoding settings : cabac=1 / ref=14 / deblock=1:-1:-1 / analyse=0x3:0x133 / me=umh / subme=11 / psy=1 / psy_rd=1.00:0.20 / mixed_ref=1 / me_range=48 / chroma_me=1 / trellis=2 / 8x8dct=1 / cqm=0 / deadzone=21,11 / fast_pskip=0 / chroma_qp_offset=-3 / threads=6 / lookahead_threads=1 / sliced_threads=0 / nr=0 / decimate=1 / interlaced=0 / bluray_compat=0 / constrained_intra=0 / bframes=16 / b_pyramid=2 / b_adapt=2 / b_bias=0 / direct=3 / weightb=1 / open_gop=0 / weightp=2 / keyint=240 / keyint_min=24 / scenecut=40 / intra_refresh=0 / rc_lookahead=80 / rc=2pass / mbtree=0 / bitrate=2613 / ratetol=1.0 / qcomp=0.70 / qpmin=0 / qpmax=69 / qpstep=4 / cplxblur=20.0 / qblur=0.5 / vbv_maxrate=50000 / vbv_bufsize=50000 / nal_hrd=none / filler=0 / ip_ratio=1.40 / pb_ratio=1.30 / aq=1:0.90
Language : English
Default : Yes
Forced : No
Color range : Limited
Color primaries : BT.709
Transfer characteristics : BT.709
Matrix coefficients : BT.709

Audio #1
ID : 2
Format : AC-3
Format/Info : Audio Coding 3
Codec ID : A_AC3
Duration : 1 h 29 min
Bit rate mode : Constant
Bit rate : 256 kb/s
Channel(s) : 2 channels
Channel positions : Front: L R
Sampling rate : 48.0 kHz
Frame rate : 31.250 FPS (1536 SPF)
Bit depth : 16 bits
Compression mode : Lossy
Stream size : 164 MiB (7%)
Title : AC3 2.0 @ 256 kbps - MVO, Хлопушка
Language : Russian
Service kind : Complete Main
Default : Yes
Forced : No

Audio #2
ID : 3
Format : AC-3
Format/Info : Audio Coding 3
Codec ID : A_AC3
Duration : 1 h 29 min
Bit rate mode : Constant
Bit rate : 384 kb/s
Channel(s) : 6 channels
Channel positions : Front: L C R, Side: L R, LFE
Sampling rate : 48.0 kHz
Frame rate : 31.250 FPS (1536 SPF)
Bit depth : 16 bits
Compression mode : Lossy
Stream size : 246 MiB (11%)
Title : AC3 5.1 @ 384 kbps - DVO, НТВ
Language : Russian
Service kind : Complete Main
Default : No
Forced : No

Audio #3
ID : 4
Format : E-AC-3
Format/Info : Enhanced Audio Coding 3
Codec ID : A_EAC3
Duration : 1 h 29 min
Bit rate mode : Constant
Bit rate : 224 kb/s
Channel(s) : 2 channels
Channel positions : Front: L R
Sampling rate : 48.0 kHz
Frame rate : 187.500 FPS (256 SPF)
Compression mode : Lossy
Stream size : 144 MiB (6%)
Title : E-AC3 2.0 @ 224 kbps - Original
Language : English
Service kind : Complete Main
Default : No
Forced : No

Text
ID : 5
Format : UTF-8
Codec ID : S_TEXT/UTF8
Codec ID/Info : UTF-8 Plain Text
Duration : 1 h 26 min
Bit rate : 86 b/s
Count of elements : 890
Stream size : 54.4 KiB (0%)
Title : RUS
Language : Russian
Default : No
Forced : No












   Похожие торренты   Торрент   Размер 
В этой теме нет новых непрочитанных сообщений. Невероятные приключения янки в Африке / Yankee Zulu (Грей Хофмайр) [1993, комедия, WEB-DLRip-AVC ] DVO+MVO

15 | 0

745.76 МБ

В этой теме нет новых непрочитанных сообщений. Невероятные приключения янки в Африке / Yankee Zulu (Грей Хофмайр) [1993, комедия, WEB-DLRip] DVO+MVO

5 | 0

1.45 ГБ

В этой теме нет новых непрочитанных сообщений. Невероятные приключения янки в Африке / Yankee Zulu (1993) DVDRip от New-Team

2172 | 101

1.46 ГБ

В этой теме нет новых непрочитанных сообщений. Гибби / Gibby (Фил Горн) [2016, семейный, приключения, комедия, WEBDLRip-AVC] MVO / Фильмы HDRip

1 | 0

2.1 ГБ

В этой теме нет новых непрочитанных сообщений. Майор Пэйн / Major Payne (Ник Касл) [1995, комедия, приключения, BDRip-AVC] DVO+MVO / Фильмы HDRip

3 | 1

2.18 ГБ

В этой теме нет новых непрочитанных сообщений. Трасса 60 / Interstate 60 (Боб Гэйл) [2002, фэнтези, драма, комедия, приключения, DVDRip-AVC] MVO + AVO / Фильмы HDRip

1 | 0

2.89 ГБ

В этой теме нет новых непрочитанных сообщений. Невероятные приключения Факира / The Extraordinary Journey of the Fakir (Кен Скотт) [2018, комедия, приключения, WEBDLRip] DUB

13 | 0

1.37 ГБ




Вы не можете начинать темы
Вы не можете отвечать на сообщения
Вы не можете редактировать свои сообщения
Вы не можете удалять свои сообщения
Вы не можете добавлять вложения

Перейти:  
 Вход
ppkBB3cker v.2 © 2008-2014 @ PPK
[ Time : 0.021s | 17 Queries | GZIP : Off ]

cron