img image001 image001 image001 image001 image001 image001 image001 image001 image001 image001 image001 image001 image001 image001 image001 image001

Planets Sun Sun Sun
Статистика раздачи
Автор: Снежана | Размер: 1.98 ГБ | Добавлен: 12 июн 2018
Раздают: 22    Качают: 0
Скачать торрент
Скачать торрент
Описание торрента

СообщениеДобавлено: 12 июн 2018 

Чёрные воды / Black Water


Перевод: Профессиональный (многоголосый закадровый) HDrezka Studio
Cубтитры: отсутствуют
Формат: BDRip-AVC, MKV, H.264, AC3
Страна: США, Канада
Режиссер: Павел Патрики
Жанр: Боевик
Продолжительность: 01:44:36
Год выпуска: 2018
В ролях: Аарон О'Коннелл, Дольф Лундгрен, Жан-Клод Ван Дамм, Патрик Килпатрик, Ал Сапиенца, Джасмин Уолтц, Джон Пози, Кристофер Ван Варенберг, Кортни Би Турк

Описание: Законспирированный агент под прикрытием Скотт Уилер приходит в себя где-то посреди Атлантического океана. Он оказывается в тайной тюрьме ЦРУ на подводной лодке, а значит сбежать оттуда — практически невозможно. Однако такого слова нет в словаре шпиона-легенды, к тому же на помощь к нему приходит немецкий агент Марко. Вместе им предстоит распутать дело о предательстве национального масштаба, перебить команду хорошо обученной охраны и найти путь наружу. Но сперва необходимо вспомнить, что же на самом деле произошло и закинуло агента Уилера в место, которого не существует ни в одних правительственных документах?



Видео: 1024x428 (2.40:1), 23.976 fps, AVC MPEG-4 (x264), High@L4,1 ~ 2071 Кбит/сек, 0.197 bit/pixel

Аудио #1: Русский:48 kHz, AC3 Dolby Digital, 2/0 (L,R) ch, ~192 kbps [Профессиональный (многоголосый закадровый), HDrezka Studio]
Аудио #2: Английский:48 kHz, AC3 Dolby Digital, 3/2 (L,C,R,l,r) + LFE ch, ~ 448 kbps avg [Оригинал]

БЕЗ КАКОЙ-ЛИБО РЕКЛАМЫ!!!






Общее
Уникальный идентификатор : 238611576868066219403109641940563438034 (0xB382EB0863C2DD3A94F1E86DAF10A9D2)
Полное имя : E:\Закачка-2\Black.Water.2018.MVO.BDRip.AVC.ExKinoRay.mkv
Формат : Matroska
Версия формата : Version 2
Размер файла : 1,98 Гбайт
Продолжительность : 1 ч. 44 м.
Общий поток : 2713 Кбит/сек
Название фильма : Black Water (2018) from ExKinoRay
Дата кодирования : UTC 2018-06-11 21:58:21
Программа кодирования : mkvmerge v5.6.0 ('Kenya Kane') built on May 27 2012 16:44:04
Библиотека кодирования : libebml v1.2.3 + libmatroska v1.3.0

Видео
Идентификатор : 1
Формат : AVC
Формат/Информация : Advanced Video Codec
Профиль формата :
Параметр CABAC формата : Да
Параметр ReFrames формата : 12 кадров
Идентификатор кодека : V_MPEG4/ISO/AVC
Продолжительность : 1 ч. 44 м.
Битрейт : 2071 Кбит/сек
Ширина : 1024 пикселя
Высота : 428 пикселей
Соотношение сторон : 2,40:1
Режим частоты кадров : Постоянный
Частота кадров : 23,976 (23976/1000) кадра/сек
Цветовое пространство : YUV
Субдискретизация насыщенности : 4:2:0
Битовая глубина : 8 бит
Тип развёртки : Прогрессивная
Бит/(Пиксели*Кадры) : 0.197
Размер потока : 1,48 Гбайт (74%)
Заголовок : Enigma
Библиотека кодирования : x264 core 152 r2851 ba24899
Настройки программы : cabac=1 / ref=12 / deblock=1:-2:-2 / analyse=0x3:0x113 / me=umh / subme=10 / psy=1 / psy_rd=1.05:0.10 / mixed_ref=1 / me_range=32 / chroma_me=1 / trellis=2 / 8x8dct=1 / cqm=0 / deadzone=21,11 / fast_pskip=0 / chroma_qp_offset=-3 / threads=12 / lookahead_threads=3 / sliced_threads=0 / nr=0 / decimate=0 / interlaced=0 / bluray_compat=0 / constrained_intra=0 / bframes=14 / b_pyramid=2 / b_adapt=2 / b_bias=0 / direct=3 / weightb=1 / open_gop=0 / weightp=2 / keyint=240 / keyint_min=23 / scenecut=40 / intra_refresh=0 / rc_lookahead=40 / rc=2pass / mbtree=0 / bitrate=2071 / ratetol=1.0 / qcomp=0.60 / qpmin=0 / qpmax=51 / qpstep=4 / cplxblur=20.0 / qblur=0.5 / vbv_maxrate=50000 / vbv_bufsize=62500 / nal_hrd=none / filler=0 / ip_ratio=1.40 / pb_ratio=1.30 / aq=2:0.90
Язык : English
Default : Да
Forced : Нет
Цветовой диапазон : Limited
Основные цвета : BT.709
Характеристики трансфера : BT.709
Коэффициенты матрицы : BT.709

Аудио #1
Идентификатор : 2
Формат : AC-3
Формат/Информация : Audio Coding 3
Расширение режима : CM (complete main)
Параметр Endianness формата : Big
Идентификатор кодека : A_AC3
Продолжительность : 1 ч. 44 м.
Вид битрейта : Постоянный
Битрейт : 192 Кбит/сек
Каналы : 2 канала
Расположение каналов : Front: L R
Частота : 48,0 КГц
Частота кадров : 31,250 кадров/сек (1536 spf)
Метод сжатия : С потерями
Размер потока : 144 Мбайт (7%)
Заголовок : MVO (HDrezka Studio)
Язык : Russian
Default : Да
Forced : Нет

Аудио #2
Идентификатор : 3
Формат : AC-3
Формат/Информация : Audio Coding 3
Расширение режима : CM (complete main)
Параметр Endianness формата : Big
Идентификатор кодека : A_AC3
Продолжительность : 1 ч. 44 м.
Вид битрейта : Постоянный
Битрейт : 448 Кбит/сек
Каналы : 6 каналов
Расположение каналов : Front: L C R, Side: L R, LFE
Частота : 48,0 КГц
Частота кадров : 31,250 кадров/сек (1536 spf)
Метод сжатия : С потерями
Размер потока : 335 Мбайт (17%)
Язык : English
Default : Нет
Forced : Нет

Меню
00:00:00.000 : en:00:00:00.000
00:15:59.834 : en:00:15:59.834
00:27:36.446 : en:00:27:36.446
00:45:27.266 : en:00:45:27.266
00:55:15.938 : en:00:55:15.938
01:05:08.446 : en:01:05:08.446
01:16:59.281 : en:01:16:59.281
01:36:07.095 : en:01:36:07.095






   Похожие торренты   Торрент   Размер 
В этой теме нет новых непрочитанных сообщений. Чёрные воды / Black Water (Павел Патрики) [2018, боевик, драма, HDRip-AVC] DVO

52 | 6

1.46 ГБ

В этой теме нет новых непрочитанных сообщений. Чёрные воды / Black Water (Павел Патрики) [2018, Боевик, BDRip] MVO

78 | 4

1.46 ГБ

В этой теме нет новых непрочитанных сообщений. Чёрные воды / Black Water (Павел Патрики) [2018, Боевик, WEB-DLRip] DVO

15 | 0

1.37 ГБ

В этой теме нет новых непрочитанных сообщений. Чёрные воды / Black Water (Паша Патрики) [2018, боевик, драма, WEBDLRip] DVO

69 | 0

1.46 ГБ

В этой теме нет новых непрочитанных сообщений. Форма воды / The Shape of Water (Гильермо дель Торо) [2017, фэнтези, драма, BDRip-AVC] DUB / Фильмы HDRip

59 | 0

2.18 ГБ

В этой теме нет новых непрочитанных сообщений. Черные воды озера Эхо / The Black Waters of Echo's Pond (2009) HDRip от Колобок | L2

47 | 4

1.37 ГБ

В этой теме нет новых непрочитанных сообщений. Дэдпул 2 [Расширенная версия] / Deadpool 2 [Super Duper Cut] (Дэвид Литч) [2018, фантастика, боевик, комедия, приключения, BDRip-AVC] DUB / Фильмы HDRip

409 | 21

4.33 ГБ




Вы не можете начинать темы
Вы не можете отвечать на сообщения
Вы не можете редактировать свои сообщения
Вы не можете удалять свои сообщения
Вы не можете добавлять вложения

Перейти:  
 Вход
ppkBB3cker v.2 © 2008-2014 @ PPK
[ Time : 0.043s | 20 Queries | GZIP : Off ]

cron