img image001 image001 image001 image001 image001 image001 image001 image001 image001 image001 image001 image001 image001 image001 image001 image001

Planets Sun Sun Sun
Статистика раздачи
Автор: Снежана | Размер: 1.46 ГБ | Добавлен: 12 июн 2018
Раздают: 59    Качают: 2
Скачать торрент
Скачать торрент
Описание торрента

СообщениеДобавлено: 12 июн 2018 

Будка поцелуев / The Kissing Booth


Перевод: Профессиональный (многоголосый закадровый) HDrezka Studio
Cубтитры: отсутствуют
Формат: WEB-DLRip-AVC, MKV, H.264, AC3
Страна: Великобритания
Режиссер: Винс Марселло
Жанр: мелодрама, комедия
Продолжительность: 01:45:03
Год выпуска: 2018

В ролях: Джейкоб Элорди, Нэйтан Линн, Джои Кинг, Молли Рингуолд, Меган Янг, Джоэл Кортни, Робби Такер, Морн Виссер
Описание: Элле Эванс, милая и симпатичная, никогда не целованная девушка, намерена впервые поцеловать парня в весеннем карнавале в средней школе, но, неожиданно для себя, обнаруживает, что влюблена в друга своего брата по имени Ной. Жизнь Элле переворачивается вверх дном, когда она понимает, что должна в конечном итоге сделать выбор: следовать правилам или следовать своему сердцу.



Видео: 1024x464 (2,2:1), 23.976 fps, AVC MPEG-4 (x264), High@L4,1 ~ 1 600 Кбит/сек, 0.140 bit/pixel
Аудио: 48 kHz, AC3 Dolby Digital, 2/0 (L,R) ch, ~ 384 Кбит/сек

Без рекламы!!!






Общее
Уникальный идентификатор : 223518528693172960891499882391146451586 (0xA8281A4E0E9A4D5EADFCC68586CDD282)
Полное имя : E:\Закачка-2\Будка поцелуев.2018.WEB-DLRip (AVC).mkv
Формат : Matroska
Версия формата : Version 2
Размер файла : 1,46 Гбайт
Продолжительность : 1 ч. 45 м.
Общий поток : 1984 Кбит/сек
Дата кодирования : UTC 2018-06-11 09:59:21
Программа кодирования : mkvmerge v7.8.0 ('River Man') 32bit built on Apr 3 2015 12:11:22
Библиотека кодирования : libebml v1.3.1 + libmatroska v1.4.2

Видео
Идентификатор : 1
Формат : AVC
Формат/Информация : Advanced Video Codec
Профиль формата :
Параметр CABAC формата : Да
Параметр ReFrames формата : 9 кадров
Идентификатор кодека : V_MPEG4/ISO/AVC
Продолжительность : 1 ч. 45 м.
Битрейт : 1600 Кбит/сек
Ширина : 1024 пикселя
Высота : 464 пикселя
Соотношение сторон : 2,2:1
Режим частоты кадров : Постоянный
Частота кадров : 23,976 (24000/1001) кадра/сек
Цветовое пространство : YUV
Субдискретизация насыщенности : 4:2:0
Битовая глубина : 8 бит
Тип развёртки : Прогрессивная
Бит/(Пиксели*Кадры) : 0.140
Размер потока : 1,15 Гбайт (79%)
Библиотека кодирования : x264 core 146 r2538 121396c
Настройки программы : cabac=1 / ref=9 / deblock=1:-2:-2 / analyse=0x3:0x113 / me=umh / subme=10 / psy=1 / psy_rd=1.00:0.15 / mixed_ref=1 / me_range=32 / chroma_me=1 / trellis=2 / 8x8dct=1 / cqm=0 / deadzone=21,11 / fast_pskip=1 / chroma_qp_offset=-3 / threads=2 / lookahead_threads=1 / sliced_threads=0 / nr=0 / decimate=0 / interlaced=0 / bluray_compat=0 / constrained_intra=0 / bframes=3 / b_pyramid=2 / b_adapt=2 / b_bias=0 / direct=3 / weightb=1 / open_gop=0 / weightp=2 / keyint=240 / keyint_min=23 / scenecut=40 / intra_refresh=0 / rc=2pass / mbtree=0 / bitrate=1600 / ratetol=1.0 / qcomp=0.60 / qpmin=0 / qpmax=69 / qpstep=4 / cplxblur=20.0 / qblur=0.5 / ip_ratio=1.40 / pb_ratio=1.30 / aq=1:1.00
Default : Да
Forced : Нет

Аудио
Идентификатор : 2
Формат : AC-3
Формат/Информация : Audio Coding 3
Расширение режима : CM (complete main)
Параметр Endianness формата : Big
Идентификатор кодека : A_AC3
Продолжительность : 1 ч. 45 м.
Вид битрейта : Постоянный
Битрейт : 384 Кбит/сек
Каналы : 2 канала
Расположение каналов : Front: L R
Частота : 48,0 КГц
Частота кадров : 31,250 кадров/сек (1536 spf)
Метод сжатия : С потерями
Размер потока : 289 Мбайт (19%)
Default : Да
Forced : Нет





   Похожие торренты   Торрент   Размер 
В этой теме нет новых непрочитанных сообщений. Будка поцелуев / The Kissing Booth (Винс Марселло) [2018, мелодрама, комедия, WEBDLRip] MVO

129 | 0

1.46 ГБ

В этой теме нет новых непрочитанных сообщений. Телефонная будка / Phone Booth (2002) WEB-DLRip-AVC | D | Open Matte

3 | 0

1.59 ГБ

В этой теме нет новых непрочитанных сообщений. Телефонная будка / Phone Booth (2002) WEB-DLRip | D | Open Matte

0 | 0

1.45 ГБ

В этой теме нет новых непрочитанных сообщений. Телефонная будка / Phone Booth (2002) WEB-DLRip-AVC от ExKinoRay | D, P, А | Open Matte

0 | 0

3.16 ГБ

В этой теме нет новых непрочитанных сообщений. Телефонная будка / Phone booth (2002) BDRip-AVC | D, А

188 | 14

3.07 ГБ

В этой теме нет новых непрочитанных сообщений. Телефонная будка / Phone Booth (2002) 720p HDTVRip | D

145 | 12

4.38 ГБ

В этой теме нет новых непрочитанных сообщений. Телефонная будка / Phone booth (2002) HDRip-AVC от ExKinoRay | А

11 | 0

746.35 МБ




Вы не можете начинать темы
Вы не можете отвечать на сообщения
Вы не можете редактировать свои сообщения
Вы не можете удалять свои сообщения
Вы не можете добавлять вложения

Перейти:  
 Вход
ppkBB3cker v.2 © 2008-2014 @ PPK
[ Time : 0.030s | 18 Queries | GZIP : Off ]

cron