img image001 image001 image001 image001 image001 image001 image001 image001 image001 image001 image001 image001 image001 image001 image001 image001

Planets Sun Sun Sun
Статистика раздачи
Автор: PriZraK | Размер: 2.19 ГБ | Добавлен: 20 июн 2018
Раздают: 16    Качают: 0
Скачать торрент
Скачать торрент
Описание торрента

СообщениеДобавлено: 20 июн 2018 

Три короля / Three Kings


Перевод: Профессиональный (полное дублирование), субтитры: отсутствуют
Формат: BDRip-AVC, MKV, H.264, AC3
Страна: США
Режиссер: Дэвид О. Расселл
Жанр: боевик, драма, комедия, приключения, военный
Продолжительность: 01:54:47
Год выпуска: 1999
В ролях: Джордж Клуни, Марк Уолберг, Айс Кьюб, Спайк Джонс, Клифф Кёртис, Нора Данн, Джейми Кеннеди, Саид Тагмауи, Майкелти Уильямсон, Холт МакКэллани

Описание: Ирак, март 1991-го года. Американцы празднуют победу — изгнание войск Саддама Хусейна из Кувейта. Капитан спецподразделения Арчи Гейтс и трое его подчиненных совершенно случайно становятся обладателями секретной карты, найденной в… заднем проходе одного из иракских воинов. Ценность ее заключается в том, что на карте указано место, где спрятано золото Саддама, награбленное в Кувейте.



Видео: 1024 x 432 (2.40:1), 23.976 fps, AVC, х264, , ~ 1829 Kbps, 0.172 bit/pixel
Аудио #1: Русский:48 kHz, AC3 Dolby Digital, 3/2 (L,C,R,l,r) + LFE ch, ~448 kbps [Профессиональный (полное дублирование)]
Аудио #2: Английский:48 kHz, AC3 Dolby Digital, 3/2 (L,C,R,l,r) + LFE ch, ~448 kbps [Оригинал]
General
Unique ID : 254757002984934585918180291024962038457 (0xBFA869FFC703B0C9B3CE3E7B0545AAB9)
Complete name : C:\Users\Юрик\Desktop\Tri.korolja.1999.x264.BDRip.(AVC)_[tile.ru].mkv
Format : Matroska
Format version : Version 4 / Version 2
File size : 2.19 GiB
Duration : 1 h 54 min
Overall bit rate : 2 727 kb/s
Encoded date : UTC 2018-06-12 19:06:55
Writing application : mkvmerge v7.4.0 ('Circles') 64bit built on Dec 12 2014 12:19:56
Writing library : libebml v1.3.0 + libmatroska v1.4.1 / Lavf55.12.100

Video
ID : 1
Format : AVC
Format/Info : Advanced Video Codec
Format profile :
Format settings, CABAC : Yes
Format settings, RefFrames : 2 frames
Format settings, GOP : M=1, N=12
Codec ID : V_MPEG4/ISO/AVC
Duration : 1 h 54 min
Bit rate : 1 829 kb/s
Width : 1 024 pixels
Height : 432 pixels
Display aspect ratio : 2.40:1
Frame rate mode : Constant
Frame rate : 23.976 (24000/1001) FPS
Color space : YUV
Chroma subsampling : 4:2:0
Bit depth : 8 bits
Scan type : Progressive
Bits/(Pixel*Frame) : 0.172
Stream size : 1.47 GiB (67%)
Language : English
Default : Yes
Forced : No

Audio #1
ID : 2
Format : AC-3
Format/Info : Audio Coding 3
Format settings, Endianness : Big
Codec ID : A_AC3
Duration : 1 h 54 min
Bit rate mode : Constant
Bit rate : 448 kb/s
Channel(s) : 6 channels
Channel positions : Front: L C R, Side: L R, LFE
Sampling rate : 48.0 kHz
Frame rate : 31.250 FPS (1536 SPF)
Bit depth : 16 bits
Compression mode : Lossy
Stream size : 368 MiB (16%)
Title : Дублированный
Language : Russian
Service kind : Complete Main
Default : Yes
Forced : No

Audio #2
ID : 3
Format : AC-3
Format/Info : Audio Coding 3
Format settings, Endianness : Big
Codec ID : A_AC3
Duration : 1 h 54 min
Bit rate mode : Constant
Bit rate : 448 kb/s
Channel(s) : 6 channels
Channel positions : Front: L C R, Side: L R, LFE
Sampling rate : 48.0 kHz
Frame rate : 31.250 FPS (1536 SPF)
Bit depth : 16 bits
Compression mode : Lossy
Stream size : 368 MiB (16%)
Service kind : Complete Main
Default : No
Forced : No















   Похожие торренты   Торрент   Размер 
В этой теме нет новых непрочитанных сообщений. Змеиный полет / Snakes on a Plane (Дэвид Р. Эллис) [2006, боевик, триллер, драма, криминал, приключения, BDRip-AVC] DUB / Боевики /Action

0 | 2

745.01 МБ

В этой теме нет новых непрочитанных сообщений. Не брать живым / Green Zone (Пол Гринграсс) [2010, боевик, триллер, драма, военный, BDRip] DUB / Боевики /Action

16 | 0

1.46 ГБ

В этой теме нет новых непрочитанных сообщений. К сокровищам авиакатастрофы / Race for the Yankee Zephyr (Дэвид Хеммингз) [1981, Боевик, приключения, BDRip] MVO / Боевики /Action

3 | 0

1.46 ГБ

В этой теме нет новых непрочитанных сообщений. Шанхайский перевозчик / S.M.A.R.T. Chase (Чарльз Мартин) [2017, боевик, комедия, приключения, BDRip] DUB / Боевики /Action

20 | 0

1.37 ГБ

В этой теме нет новых непрочитанных сообщений. Шанхайский перевозчик / S.M.A.R.T. Chase (Чарльз Мартин) [2017, Боевик, комедия, приключения, BDRip] DUB / Боевики /Action

22 | 0

1.46 ГБ

В этой теме нет новых непрочитанных сообщений. Герои не возвращаются / Heroes Don't Come Home (Джейк Хьюз) [2016, боевик, драма, военный, HDRip] MVO / Боевики /Action

6 | 0

1.46 ГБ

В этой теме нет новых непрочитанных сообщений. Отряд особого назначения / Forces speciales (Стефан Рибожад) [2011, боевик, драма, военный, HDRip] DUB / Боевики /Action

20 | 0

1.46 ГБ




Вы не можете начинать темы
Вы не можете отвечать на сообщения
Вы не можете редактировать свои сообщения
Вы не можете удалять свои сообщения
Вы не можете добавлять вложения

Перейти:  
 Вход
ppkBB3cker v.2 © 2008-2014 @ PPK
[ Time : 0.041s | 16 Queries | GZIP : Off ]

cron