img image001 image001 image001 image001 image001 image001 image001 image001 image001 image001 image001 image001 image001 image001 image001 image001

Planets Sun Sun Sun
Статистика раздачи
Автор: PriZraK | Размер: 1.46 ГБ | Добавлен: 20 июн 2018
Раздают: 133    Качают: 3
Скачать торрент
Скачать торрент
Описание торрента

СообщениеДобавлено: 20 июн 2018 

Операция «Шаровая молния» / Entebbe
«248 пассажиров. 7 дней. Один план спасения»


Перевод: Профессиональный (многоголосый закадровый) HDrezka Studio
Cубтитры: Английские
Формат: WEB-DLRip-AVC, MKV, H.264, AC3
Страна: США, Великобритания
Режиссер: Жозе Падилья
Жанр: триллер, драма, криминал
Продолжительность: 01:47:00
Год выпуска: 2018

В ролях: Нонсо Анози, Анхель Бунани, Хуан Пабло Раба, Бронтис Ходоровски, Бен Шнетцер, Даниэль Брюль, Розамунд Пайк, Марк Иванир, Эдди Марсан, Дени Меноше

Описание: В 1976 году самолет, следовавший из Тель-Авива в Париж, был захвачен террористами и совершил вынужденную посадку в аэропорту Энтеббе в Уганде с целью обмена заложников на осужденных преступников. Дипломатического решения вопроса за 7 дней найти не удалось. Тогда был разработан весьма изобретательный и крайне смелый план спасения…



Видео: 1024x426 (2.40:1), 23,976 fps, AVC MPEG-4 (x264), High@L4,1 ~ 1 567 kbps avg, 0.150 bit/pixel

Аудио#1: Русский: 48 kHz/16 bits, AC3 Dolby Digital, 2/0 (L,R) ch, ~192 kbps avg [Профессиональный (многоголосый закадровый), HDrezka Studio]
Аудио#2: Английский: 48 kHz/16 bits, AC3 Dolby Digital, 2/0 (L,R) ch, ~192 kbps avg [Оригинал]





Общее
Уникальный идентификатор : 199552548531544184569164022662387589573 (0x96206C412E188077ABA1690176FDE1C5)
Полное имя : E:OlLanDGroup7.Days.in.Entebbe.2018.WEB-DLRip(AVC).OlLanDGroup.mkv
Формат : Matroska
Версия формата : Version 4 / Version 2
Размер файла : 1,46 Гбайт
Продолжительность : 1 ч. 47 м.
Общий поток : 1953 Кбит/сек
Название фильма : 7.Days.in.Entebbe.2018 #TorpedoUK#
Дата кодирования : UTC 2018-06-18 12:20:18
Программа кодирования : mkvmerge v8.3.0 ('Over the Horizon') 64bit
Библиотека кодирования : libebml v1.3.1 + libmatroska v1.4.2
Обложка : Yes
Attachments : small_cover.jpg / small_cover_land.jpg / cover.jpg / cover_land.jpg

Видео
Идентификатор : 1
Формат : AVC
Формат/Информация : Advanced Video Codec
Профиль формата :
Параметр CABAC формата : Да
Параметр ReFrames формата : 10 кадров
Идентификатор кодека : V_MPEG4/ISO/AVC
Продолжительность : 1 ч. 47 м.
Битрейт : 1567 Кбит/сек
Ширина : 1024 пикселя
Высота : 426 пикселей
Соотношение сторон : 2,40:1
Режим частоты кадров : Постоянный
Частота кадров : 23,976 (24000/1001) кадра/сек
Цветовое пространство : YUV
Субдискретизация насыщенности : 4:2:0
Битовая глубина : 8 бит
Тип развёртки : Прогрессивная
Бит/(Пиксели*Кадры) : 0.150
Размер потока : 1,17 Гбайт (80%)
Библиотека кодирования : x264 core 146 r2538 121396c
Настройки программы : cabac=1 / ref=10 / deblock=1:-3:-3 / analyse=0x3:0x113 / me=umh / subme=11 / psy=1 / psy_rd=0.98:0.06 / mixed_ref=1 / me_range=48 / chroma_me=1 / trellis=2 / 8x8dct=1 / cqm=0 / deadzone=21,11 / fast_pskip=1 / chroma_qp_offset=-3 / threads=6 / lookahead_threads=1 / sliced_threads=0 / nr=0 / decimate=1 / interlaced=0 / bluray_compat=0 / constrained_intra=0 / bframes=10 / b_pyramid=2 / b_adapt=2 / b_bias=0 / direct=3 / weightb=1 / open_gop=0 / weightp=2 / keyint=240 / keyint_min=23 / scenecut=40 / intra_refresh=0 / rc_lookahead=40 / rc=2pass / mbtree=1 / bitrate=1567 / ratetol=1.0 / qcomp=0.60 / qpmin=0 / qpmax=69 / qpstep=4 / cplxblur=20.0 / qblur=0.5 / vbv_maxrate=50000 / vbv_bufsize=62500 / nal_hrd=none / filler=0 / ip_ratio=1.40 / aq=1:1.00
Default : Да
Forced : Нет

Аудио #1
Идентификатор : 2
Формат : AC-3
Формат/Информация : Audio Coding 3
Расширение режима : CM (complete main)
Параметр Endianness формата : Big
Идентификатор кодека : A_AC3
Продолжительность : 1 ч. 47 м.
Вид битрейта : Постоянный
Битрейт : 192 Кбит/сек
Каналы : 2 канала
Расположение каналов : Front: L R
Частота : 48,0 КГц
Частота кадров : 31,250 кадров/сек (1536 spf)
Битовая глубина : 16 бит
Метод сжатия : С потерями
Размер потока : 147 Мбайт (10%)
Заголовок : [HDRezka Studio]
Язык : Russian
Default : Да
Forced : Нет

Аудио #2
Идентификатор : 3
Формат : AC-3
Формат/Информация : Audio Coding 3
Расширение режима : CM (complete main)
Параметр Endianness формата : Big
Идентификатор кодека : A_AC3
Продолжительность : 1 ч. 47 м.
Вид битрейта : Постоянный
Битрейт : 192 Кбит/сек
Каналы : 2 канала
Расположение каналов : Front: L R
Частота : 48,0 КГц
Частота кадров : 31,250 кадров/сек (1536 spf)
Битовая глубина : 16 бит
Метод сжатия : С потерями
Размер потока : 147 Мбайт (10%)
Заголовок : Original
Язык : English
Default : Нет
Forced : Нет

Текст
Идентификатор : 4
Формат : UTF-8
Идентификатор кодека : S_TEXT/UTF8
Идентификатор кодека/Информация : UTF-8 Plain Text
Продолжительность : 1 ч. 33 м.
Битрейт : 48 бит/сек
Count of elements : 1124
Размер потока : 33,5 Кбайт (0%)
Заголовок : Full
Язык : English
Default : Нет
Forced : Нет

Меню
00:00:00.000 : en:1
00:02:33.570 : en:2
00:06:18.669 : en:3
00:12:01.261 : en:4
00:19:01.431 : en:5
00:24:12.575 : en:6
00:28:11.604 : en:7
00:32:44.418 : en:8
00:38:11.410 : en:9
00:44:33.542 : en:10
00:49:32.464 : en:11
00:53:07.011 : en:12
00:58:23.701 : en:13
01:04:05.541 : en:14
01:08:08.617 : en:15
01:16:14.977 : en:16
01:21:12.607 : en:17
01:28:58.989 : en:18
01:37:32.835 : en:19
01:39:10.890 : en:20





   Похожие торренты   Торрент   Размер 
В этой теме нет новых непрочитанных сообщений. Операция «Шаровая молния» / Entebbe (Жозе Падилья) [2018, триллер, драма, криминал, WEB-DLRip] MVO

182 | 5

1.46 ГБ

В этой теме нет новых непрочитанных сообщений. Операция «Шаровая молния» / Entebbe (Жозе Падилья) [2018, триллер, драма, криминал, WEB-DLRip] DUB

112 | 2

1.46 ГБ

В этой теме нет новых непрочитанных сообщений. Операция «Шаровая молния» / Entebbe (2018) HDRip от Generalfilm | КПК | iTunes

107 | 17

404.85 МБ

В этой теме нет новых непрочитанных сообщений. Операция «Шаровая молния» / Entebbe (2018) BDRip от MegaPeer | Line

274 | 15

1.41 ГБ

В этой теме нет новых непрочитанных сообщений. Операция «Шаровая молния» / Entebbe (2018) BDRip 720p | D, P | Line

0 | 0

5.29 ГБ

В этой теме нет новых непрочитанных сообщений. Операция «Шаровая молния» / Entebbe (2018) BDRip-AVC от OlLanDGroup | D, P | iTunes

129 | 12

1.68 ГБ

В этой теме нет новых непрочитанных сообщений. Операция «Шаровая молния» / Entebbe (2018) BDRip 720p | D, P | iTunes

114 | 14

5.29 ГБ




Вы не можете начинать темы
Вы не можете отвечать на сообщения
Вы не можете редактировать свои сообщения
Вы не можете удалять свои сообщения
Вы не можете добавлять вложения

Перейти:  
 Вход
ppkBB3cker v.2 © 2008-2014 @ PPK
[ Time : 0.029s | 17 Queries | GZIP : Off ]

cron