img image001 image001 image001 image001 image001 image001 image001 image001 image001 image001 image001 image001 image001 image001 image001 image001

Planets Sun Sun Sun
Статистика раздачи
Автор: PriZraK | Размер: 1.46 ГБ | Добавлен: 20 июн 2018
Раздают: 55    Качают: 0
Скачать торрент
Скачать торрент
Описание торрента

СообщениеДобавлено: 20 июн 2018 

Игры юрского периода / The Jurassic Games


Перевод: Любительский (двухголосый) HiWay Grope, субтитры: отсутствуют
Формат: WEBRip-AVC, MKV, H.264, AC3
Страна: США
Режиссер: Райан Беллгардт
Жанр: Фантастика, триллер
Продолжительность: 01:26:31
Год выпуска: 2018
В ролях: Перри Ривз, Райан Мерриман, Адам Хэмптон, Кэти Баргесс, Кейт Джонс, Люк Уайкофф, Эрика Дэли и другие

Описание: Недалёкое будущее. 10 преступников, которые были осуждены, оказываются заперты в виртуальной реальности, где за ними ведут охоту самые настоящие динозавры. Если преступники победят, то они получат свободу, если же нет - умрут. Всё очень просто, но хватит ли им сил совладать с доисторическими существами, которые далеко не так тупы, как может показаться на первый взгляд?



Видео: 1024x432 (2.40:1), 23.976 fps, AVC MPEG-4 (x264), ~1981 kbps avg, 0.187 bits/(pixel*frame)
Аудио: 48 kHz, AC3 Dolby Digital, 3/2 (L,C,R,l,r) + LFE ch, ~384 kbps

ПРИСУТСТВУЕТ НЕБОЛЬШАЯ РЕКЛАМА !

General
Unique ID : 318881458030576474586522880125588829153 (0xEFE655BA3E3ED591C557427D80FD73E1)
Complete name : C:\Users\Юрик\Desktop\The.Jurassic.Games.2018_[tfile.ru].mkv
Format : Matroska
Format version : Version 2
File size : 1.46 GiB
Duration : 1h 26mn
Overall bit rate : 2 413 Kbps
Writing application : Lavf55.12.100
Writing library : Lavf55.12.100

Video
ID : 2
Format : AVC
Format/Info : Advanced Video Codec
Format profile :
Format settings, CABAC : Yes
Format settings, ReFrames : 2 frames
Codec ID : V_MPEG4/ISO/AVC
Duration : 1h 26mn
Bit rate : 1 981 Kbps
Width : 1 024 pixels
Height : 432 pixels
Display aspect ratio : 2.40:1
Frame rate mode : Constant
Frame rate : 23.976 fps
Color space : YUV
Chroma subsampling : 4:2:0
Bit depth : 8 bits
Scan type : Progressive
Bits/(Pixel*Frame) : 0.187
Stream size : 1.20 GiB (82%)
Language : English
Default : Yes
Forced : No

Audio
ID : 1
Format : AC-3
Format/Info : Audio Coding 3
Mode extension : CM (complete main)
Format settings, Endianness : Big
Codec ID : A_AC3
Duration : 1h 26mn
Bit rate mode : Constant
Bit rate : 384 Kbps
Channel(s) : 6 channels
Channel positions : Front: L C R, Side: L R, LFE
Sampling rate : 48.0 KHz
Bit depth : 32 bits
Compression mode : Lossy
Stream size : 238 MiB (16%)
Language : Russian
Default : Yes
Forced : No



















   Похожие торренты   Торрент   Размер 
В этой теме нет новых непрочитанных сообщений. Игры юрского периода / The Jurassic Games (Райан Беллгардт) [2018, фантастика, триллер, WEBDLRip] MVO

27 | 0

1.32 ГБ

В этой теме нет новых непрочитанных сообщений. Мир Юрского периода 2 / Jurassic World: Fallen Kingdom (Хуан Антонио Байона) [2018, фантастика, боевик, приключения, TeleSynch] DUB

541 | 34

2.02 ГБ

В этой теме нет новых непрочитанных сообщений. Мир Юрского периода / Jurassic World (2015) WEBRip-AVC | D

18 | 4

4.34 ГБ

В этой теме нет новых непрочитанных сообщений. Мир Юрского периода / Jurassic World (2015) WEBRip 1080p | D, A | Open Matte

20 | 8

18.54 ГБ

В этой теме нет новых непрочитанных сообщений. Войны Юрского периода. Часть 1-3 / Wars of Jurassic Period / Jurassic Wars [01-26 из 26] (2005) 3xDVD5 от Youtracker | P | Лицензия

0 | 10

10.79 ГБ

В этой теме нет новых непрочитанных сообщений. Мир Юрского периода / Jurassic World (2015) TS

1618 | 259

2.06 ГБ

В этой теме нет новых непрочитанных сообщений. Мир Юрского периода / Jurassic World (2015) TS

3497 | 927

1.46 ГБ




Вы не можете начинать темы
Вы не можете отвечать на сообщения
Вы не можете редактировать свои сообщения
Вы не можете удалять свои сообщения
Вы не можете добавлять вложения

Перейти:  
 Вход
ppkBB3cker v.2 © 2008-2014 @ PPK
[ Time : 0.031s | 16 Queries | GZIP : Off ]

cron