img image001 image001 image001 image001 image001 image001 image001 image001 image001 image001 image001 image001 image001 image001 image001 image001

Planets Sun Sun Sun
Статистика раздачи
Автор: PriZraK | Размер: 1.45 ГБ | Добавлен: 20 июн 2018
Раздают: 10    Качают: 0
Скачать торрент
Скачать торрент
Описание торрента

СообщениеДобавлено: 20 июн 2018 

Последнее завещание Нобеля / Nobels testamente
Перевод: Профессиональный (полное дублирование), cубтитры: русские
Формат: BDRip-AVC, MKV, H.264, AC3
Страна: Швеция
Режиссер: Петер Флинт
Жанр: триллер, драма, криминал, детектив
Продолжительность: 01:32:41
Год выпуска: 2012

В ролях: Малин Крепин, Бьерн Чьелльман, Лейф Андре, Кайса Эрнст, Эрик Йоханссон, Феликс Энгстрем, Ричард Ульфзэтер, Андреас Ротлин-Свенссон, Антье Трое, Пер Граффман

Описание: Во время торжественного ужина по случаю вручения Нобелевской премии репортер криминальной хроники Аника Бенгцтон становится невольным свидетелем убийства высокопоставленного чиновника. Полиция запрещает ей оглашать подробности, но репортер до мозга костей не в силах сопротивляться журналистскому призванию. Аника начинает самостоятельное расследование.



Видео: 1008x430 (2.35:1), 24 fps, AVC (x264), ~1854 kbps, 0.178 bit/pixel
Аудио: 48 kHz, AC3 Dolby Digital, 3/2 (L,C,R,l,r) + LFE ch, ~384 kbps

General
Unique ID : 186452117957572469972621172264168714276 (0x8C455F28D6922AC18298387CC4E9F024)
Complete name : D:\Poslednee.zavewanie.Nobelja.2012.x264.BDRip.(AVC).fanatus.mkv
Format : Matroska
Format version : Version 2
File size : 1.45 GiB
Duration : 1h 32mn
Overall bit rate : 2 238 Kbps
Movie name : Nobels testamente (2012) - fanatus
Encoded date : UTC 2012-11-02 06:35:45
Writing application : mkvmerge v3.4.0 ('Rapunzel') сборка от May 15 2010 09:38:20
Writing library : libebml v0.8.0 + libmatroska v0.9.0

Video
ID : 1
Format : AVC
Format/Info : Advanced Video Codec
Format profile :
Format settings, CABAC : Yes
Format settings, ReFrames : 13 frames
Codec ID : V_MPEG4/ISO/AVC
Duration : 1h 32mn
Bit rate : 1 854 Kbps
Width : 1 008 pixels
Height : 430 pixels
Display aspect ratio : 2.35:1
Frame rate : 24.000 fps
Color space : YUV
Chroma subsampling : 4:2:0
Bit depth : 8 bits
Scan type : Progressive
Bits/(Pixel*Frame) : 0.178
Stream size : 1.17 GiB (81%)
Title : Nobels testamente (2012)
Writing library : x264 core 128 r2216 198a7ea
Encoding settings : cabac=1 / ref=13 / deblock=1:-2:-2 / analyse=0x3:0x113 / me=umh / subme=11 / psy=1 / psy_rd=1.00:0.05 / mixed_ref=1 / me_range=32 / chroma_me=1 / trellis=2 / 8x8dct=1 / cqm=0 / deadzone=21,11 / fast_pskip=0 / chroma_qp_offset=-3 / threads=16 / lookahead_threads=2 / sliced_threads=0 / nr=0 / decimate=0 / interlaced=0 / bluray_compat=0 / constrained_intra=0 / bframes=10 / b_pyramid=2 / b_adapt=2 / b_bias=0 / direct=3 / weightb=1 / open_gop=0 / weightp=2 / keyint=240 / keyint_min=24 / scenecut=40 / intra_refresh=0 / rc_lookahead=40 / rc=2pass / mbtree=0 / bitrate=1854 / ratetol=1.0 / qcomp=0.60 / qpmin=0 / qpmax=69 / qpstep=4 / cplxblur=20.0 / qblur=0.5 / vbv_maxrate=50000 / vbv_bufsize=62500 / nal_hrd=none / ip_ratio=1.40 / pb_ratio=1.30 / aq=1:0.95
Language : Swedish
Default : Yes
Forced : No
Color primaries : BT.709-5, BT.1361, IEC 61966-2-4, SMPTE RP177
Transfer characteristics : BT.709-5, BT.1361
Matrix coefficients : BT.709-5, BT.1361, IEC 61966-2-4 709, SMPTE RP177

Audio
ID : 2
Format : AC-3
Format/Info : Audio Coding 3
Mode extension : CM (complete main)
Format settings, Endianness : Big
Codec ID : A_AC3
Duration : 1h 32mn
Bit rate mode : Constant
Bit rate : 384 Kbps
Channel(s) : 6 channels
Channel positions : Front: L C R, Side: L R, LFE
Sampling rate : 48.0 KHz
Bit depth : 16 bits
Compression mode : Lossy
Stream size : 255 MiB (17%)
Title : Dub
Language : Russian
Default : Yes
Forced : No

Text
ID : 3
Format : UTF-8
Codec ID : S_TEXT/UTF8
Codec ID/Info : UTF-8 Plain Text
Language : Russian
Default : No
Forced : No

Menu
00:00:00.000 : :Chapter 01
00:09:59.958 : :Chapter 02
00:19:59.708 : :Chapter 03
00:30:00.000 : :Chapter 04
00:39:59.791 : :Chapter 05
00:49:59.750 : :Chapter 06
00:59:59.666 : :Chapter 07
01:09:59.750 : :Chapter 08
01:19:59.625 : :Chapter 09
01:29:59.791 : :Chapter 10












   Похожие торренты   Торрент   Размер 
В этой теме нет новых непрочитанных сообщений. Страсть / (Брайан Де Пальма) [2012, триллер, драма, криминал, детектив , BDRip] MVO(rus)+DVO(rus)

5 | 1

2.06 ГБ

В этой теме нет новых непрочитанных сообщений. Близнецы / Gemini (Аарон Кац) [2017, триллер, драма, криминал, детектив, BDRip] MVO

11 | 0

1.4 ГБ

В этой теме нет новых непрочитанных сообщений. Помни / Memento (Кристофер Нолан) [2000, триллер, детектив, драма, криминал, BDRip-AVC] DUB

38 | 1

2.18 ГБ

В этой теме нет новых непрочитанных сообщений. Снеговик / The Snowman (Томас Альфредсон) [2017, ужасы, триллер, драма, криминал, детектив, BDRip] DUB

37 | 0

2.18 ГБ

В этой теме нет новых непрочитанных сообщений. Снеговик / The Snowman (Томас Альфредсон) [2017, ужасы, триллер, драма, криминал, детектив, BDRip] DUB

27 | 2

1.46 ГБ

В этой теме нет новых непрочитанных сообщений. Перелом / Изъян / Fracture (Грегори Хоблит) [2007, триллер, драма, криминал, детектив, BDRip-AVC] AVO

2 | 0

1.83 ГБ

В этой теме нет новых непрочитанных сообщений. Инoстранец / The Fоreigner (Мартин Кэмпбелл) [2017, боевик, триллер, драма, криминал, детектив, BDRip] AVO

20 | 0

2.07 ГБ




Вы не можете начинать темы
Вы не можете отвечать на сообщения
Вы не можете редактировать свои сообщения
Вы не можете удалять свои сообщения
Вы не можете добавлять вложения

Перейти:  
 Вход
ppkBB3cker v.2 © 2008-2014 @ PPK
[ Time : 0.042s | 15 Queries | GZIP : Off ]

cron