img image001 image001 image001 image001 image001 image001 image001 image001 image001 image001 image001 image001 image001 image001 image001 image001

Planets Sun Sun Sun
Статистика раздачи
Автор: PriZraK | Размер: 1.46 ГБ | Добавлен: 20 июн 2018
Раздают: 8    Качают: 0
Скачать торрент
Скачать торрент
Описание торрента

СообщениеДобавлено: 20 июн 2018 

Оно / It Follows


Перевод: Профессиональный (полное дублирование) Лицензия R5
Cубтитры: Pусские
Формат: BDRip-AVC, MKV, H.264, AC3
Страна: США
Режиссер: Дэвид Роберт Митчелл
Жанр: ужасы, детектив
Продолжительность: 01:40:27
Год выпуска: 2014

В ролях: Кейр Гилкрист, Лорен Басс, Оливия Луккарди, Лили Сепе, Майка Монро, Джейк Вири, Дэниэл Дзоватто, Чарльз Гертнер, Бэйли Спрай

Описание: После сексуальной связи 19-летнюю девушку по имени Джей начинают мучать странные видения и непреодолимое чувство того, что кто-то или что-то за ней следит…



Видео: 984x410 (2,40:1), 23.976 fps, AVC MPEG-4 (x264), High@L4,1 ~ 1 639 Кбит/сек, 0.169 bit/pixel
Аудио: 48 kHz, AC3 Dolby Digital, 3/2 (L,C,R,l,r) + LFE ch, ~ 448 kbps avg





Общее
Уникальный идентификатор : 194870513274308949565870849551162624835 (0x929AB2180A0DC9A2845CC9AC80AF4B43)
Полное имя : E:\Закачка-2\Ono.2015.RUS.BDRip.x264.-HELLYWOOD.mkv
Формат : Matroska
Версия формата : Version 4 / Version 2
Размер файла : 1,46 Гбайт
Продолжительность : 1 ч. 40 м.
Общий поток : 2088 Кбит/сек
Название фильма : It Follows (2014)
Дата кодирования : UTC 2018-06-19 19:25:37
Программа кодирования : mkvmerge v5.9.0 ('On The Loose') built on Dec 15 2012 16:39:58
Библиотека кодирования : libebml v1.3.0 + libmatroska v1.4.0

Видео
Идентификатор : 1
Формат : AVC
Формат/Информация : Advanced Video Codec
Профиль формата :
Параметр CABAC формата : Да
Параметр ReFrames формата : 12 кадров
Идентификатор кодека : V_MPEG4/ISO/AVC
Продолжительность : 1 ч. 40 м.
Битрейт : 1639 Кбит/сек
Ширина : 984 пикселя
Высота : 410 пикселей
Соотношение сторон : 2,40:1
Режим частоты кадров : Постоянный
Частота кадров : 23,976 (24000/1001) кадра/сек
Цветовое пространство : YUV
Субдискретизация насыщенности : 4:2:0
Битовая глубина : 8 бит
Тип развёртки : Прогрессивная
Бит/(Пиксели*Кадры) : 0.169
Размер потока : 1,12 Гбайт (77%)
Заголовок : potroks
Библиотека кодирования : x264 core 146 r2538 121396c
Настройки программы : cabac=1 / ref=12 / deblock=1:-2:-2 / analyse=0x3:0x113 / me=umh / subme=11 / psy=1 / psy_rd=1.05:0.10 / mixed_ref=1 / me_range=48 / chroma_me=1 / trellis=2 / 8x8dct=1 / cqm=0 / deadzone=21,11 / fast_pskip=0 / chroma_qp_offset=-3 / threads=9 / lookahead_threads=2 / sliced_threads=0 / nr=0 / decimate=1 / interlaced=0 / bluray_compat=0 / constrained_intra=0 / bframes=13 / b_pyramid=2 / b_adapt=2 / b_bias=0 / direct=3 / weightb=1 / open_gop=0 / weightp=2 / keyint=250 / keyint_min=23 / scenecut=40 / intra_refresh=0 / rc_lookahead=60 / rc=2pass / mbtree=0 / bitrate=1639 / ratetol=1.0 / qcomp=0.70 / qpmin=0 / qpmax=69 / qpstep=4 / cplxblur=20.0 / qblur=0.5 / vbv_maxrate=14000 / vbv_bufsize=14000 / nal_hrd=none / filler=0 / ip_ratio=1.35 / pb_ratio=1.25 / aq=1:0.80
Язык : English
Default : Да
Forced : Нет

Аудио
Идентификатор : 2
Формат : AC-3
Формат/Информация : Audio Coding 3
Расширение режима : CM (complete main)
Параметр Endianness формата : Big
Идентификатор кодека : A_AC3
Продолжительность : 1 ч. 40 м.
Вид битрейта : Постоянный
Битрейт : 448 Кбит/сек
Каналы : 6 каналов
Расположение каналов : Front: L C R, Side: L R, LFE
Частота : 48,0 КГц
Частота кадров : 31,250 кадров/сек (1536 spf)
Метод сжатия : С потерями
Задержка видео : 3 с. 10 мс.
Размер потока : 321 Мбайт (21%)
Заголовок : Dub | DD 5.1 @ 448 kbps- R5
Язык : Russian
Default : Да
Forced : Нет

Текст
Идентификатор : 3
Формат : UTF-8
Идентификатор кодека : S_TEXT/UTF8
Идентификатор кодека/Информация : UTF-8 Plain Text
Заголовок : A.Matveev
Язык : Russian
Default : Нет
Forced : Нет

Меню
00:00:00.000 : en:Chapter 01
00:03:53.024 : en:Chapter 02
00:08:46.901 : en:Chapter 03
00:13:58.671 : en:Chapter 04
00:22:05.115 : en:Chapter 05
00:27:20.930 : en:Chapter 06
00:32:12.513 : en:Chapter 07
00:44:38.467 : en:Chapter 08
00:49:14.993 : en:Chapter 09
00:53:58.485 : en:Chapter 10
01:02:48.055 : en:Chapter 11
01:07:45.019 : en:Chapter 12
01:16:13.485 : en:Chapter 13
01:26:19.007 : en:Chapter 14
01:31:18.514 : en:Chapter 15
01:35:42.194 : en:Chapter 16






   Похожие торренты   Торрент   Размер 
В этой теме нет новых непрочитанных сообщений. Оно / It Follows (Дэвид Роберт Митчелл) [2014, ужасы, детектив, BDRip] DUB / Мистика

8 | 1

1.46 ГБ

В этой теме нет новых непрочитанных сообщений. Оно / It Follows (Дэвид Роберт Митчелл) [2014, ужасы, детектив, BDRip-AVC] DUB / Мистика

2 | 0

2.18 ГБ

В этой теме нет новых непрочитанных сообщений. Муза / Muse (Жауме Балагуэро) [2017, ужасы, мистика, детектив, триллер, BDRip] MVO / Мистика

25 | 0

1.46 ГБ

В этой теме нет новых непрочитанных сообщений. Кукла / Мальчик / The Boy (Уильям Брент Белл) [2016, ужасы, мистика, триллер, детектив, BDRip] DUB / Мистика

43 | 0

1.46 ГБ

В этой теме нет новых непрочитанных сообщений. Сомния / Before I Wake (Майк Флэнеган) [2016, ужасы, мистика, триллер, драма, детектив, BDRip] DUB / Мистика

46 | 0

2.1 ГБ

В этой теме нет новых непрочитанных сообщений. Сделка / The Covenant (Роберт Конуэй) [2017, ужасы, WEB-DLRip] MVO / Мистика

0 | 0

1.37 ГБ

В этой теме нет новых непрочитанных сообщений. От заката до рассвета / From Dusk Till Dawn (Роберт Родригес) [1996, ужасы, фэнтези, боевик, триллер, комедия, криминал, BDRip] 2xMVO / Мистика

5 | 0

1.46 ГБ




Вы не можете начинать темы
Вы не можете отвечать на сообщения
Вы не можете редактировать свои сообщения
Вы не можете удалять свои сообщения
Вы не можете добавлять вложения

Перейти:  
 Вход
ppkBB3cker v.2 © 2008-2014 @ PPK
[ Time : 0.103s | 15 Queries | GZIP : Off ]

cron