img image001 image001 image001 image001 image001 image001 image001 image001 image001 image001 image001 image001 image001 image001 image001 image001

Planets Sun Sun Sun
Статистика раздачи
Автор: Снежана | Размер: 746.45 МБ | Добавлен: 21 июн 2018
Раздают: 4    Качают: 0
Скачать торрент
Скачать торрент
Описание торрента

СообщениеДобавлено: 21 июн 2018 

Боги, наверное, сошли с ума / The Gods Must Be Crazy

Перевод: Профессиональный (многоголосый, закадровый)
, субтитры: отсутствуют
Формат: WEB-DLRip-AVC , MKV, H.264, AAC
Страна: Ботсвана, ЮАР
Режиссер: Джейми Юйс
Жанр: комедия
Продолжительность: 01:49:05
Год выпуска: 1980

В ролях: Н!ксау, Сандра Принслу, Мариус Вейерс, Лоу Вервей, Майкл Тис, Ник Де Ягер, Фаньяна Х. Сидумао, Джо Сикэтси, Брайан О’Шонесси, Кен Гампу

Описание: В дикие, девственные леса Африки с небес падает бутылка «Кока-колы». Здесь же обитает по-детски невинное племя бушменов. Вокруг столкновения двух цивилизаций происходит масса комедийных моментов.



Видео: 752x320 (2.35:1), 23.976 fps, AVC MPEG-4 (H.264), ~879 kbps, 0.152 bit/pixel
Аудио: 48 kHz, AАС-HE, 2 ch, ~76 kbps

Формат : Matroska
Версия формата : Version 2
Размер файла : 746 Мбайт
Продолжительность : 1 ч. 49 м.
Общий поток : 957 Кбит/сек
Дата кодирования : UTC 2018-05-27 16:00:52
Программа кодирования : mkvmerge v23.0.0 ('The Bride Said No') 64-bit
Библиотека кодирования : libebml v1.3.6 + libmatroska v1.4.9

Видео
Идентификатор : 1
Формат : AVC
Формат/Информация : Advanced Video Codec
Профиль формата :
Параметр CABAC формата : Да
Параметр RefFrames формата : 10 кадров
Идентификатор кодека : V_MPEG4/ISO/AVC
Продолжительность : 1 ч. 49 м.
Битрейт : 879 Кбит/сек
Ширина : 752 пикселя
Высота : 320 пикселей
Соотношение сторон : 2,35:1
Режим частоты кадров : Постоянный
Частота кадров : 23,976 (24000/1001) кадра/сек
Цветовое пространство : YUV
Субдискретизация насыщенности : 4:2:0
Битовая глубина : 8 бит
Тип развёртки : Прогрессивная
Бит/(Пиксели*Кадры) : 0.152
Размер потока : 686 Мбайт (92%)
Библиотека кодирования : x264 core 155 r2901 7d0ff22
Настройки программы : cabac=1 / ref=10 / deblock=1:-3:-3 / analyse=0x3:0x133 / me=umh / subme=11 / psy=1 / psy_rd=1.00:0.13 / mixed_ref=1 / me_range=32 / chroma_me=1 / trellis=2 / 8x8dct=1 / cqm=0 / deadzone=21,11 / fast_pskip=0 / chroma_qp_offset=-3 / threads=6 / lookahead_threads=1 / sliced_threads=0 / nr=0 / decimate=0 / interlaced=0 / bluray_compat=0 / constrained_intra=0 / bframes=10 / b_pyramid=2 / b_adapt=2 / b_bias=0 / direct=3 / weightb=1 / open_gop=0 / weightp=2 / keyint=240 / keyint_min=23 / scenecut=40 / intra_refresh=0 / rc_lookahead=40 / rc=2pass / mbtree=1 / bitrate=879 / ratetol=1.0 / qcomp=0.60 / qpmin=0 / qpmax=69 / qpstep=4 / cplxblur=20.0 / qblur=0.5 / vbv_maxrate=50000 / vbv_bufsize=62500 / nal_hrd=none / filler=0 / ip_ratio=1.40 / aq=3:1.00
Default : Да
Forced : Нет

Аудио
Идентификатор : 2
Формат : AAC
Формат/Информация : Advanced Audio Codec
Профиль формата : HE-AAC / LC
Идентификатор кодека : A_AAC
Продолжительность : 1 ч. 49 м.
Битрейт : 76,0 Кбит/сек
Каналы : 2 канала
Расположение каналов : Front: L R
Частота : 48,0 КГц / 24,0 КГц
Частота кадров : 23,438 кадра/сек (1024 SPF)
Метод сжатия : С потерями
Задержка видео : 31 мс.
Размер потока : 59,3 Мбайт (8%)
Язык : Russian
Default : Да
Forced : Нет












   Похожие торренты   Торрент   Размер 
В этой теме нет новых непрочитанных сообщений. Боги, наверное, сошли с ума / The Gods Must Be Crazy (Джейми Юйс) [1980, комедия, DVDRip] DVO

15 | 3

1.46 ГБ

В этой теме нет новых непрочитанных сообщений. Боги, наверное, сошли с ума / The Gods Must Be Crazy (Джейми Юйс) [1980, kомедия, приключения, WEBDLRip] DVO

0 | 3

1.46 ГБ

В этой теме нет новых непрочитанных сообщений. Боги, наверное, сошли с ума / The Gods Must Be Crazy (1980) DVDRip от bittracker | Р

454 | 29

746.43 МБ

В этой теме нет новых непрочитанных сообщений. Боги, наверное, сошли с ума 2 / The Gods Must Be Crazy II (1989) DVDRip-AVC | P, А

45 | 4

2.49 ГБ

В этой теме нет новых непрочитанных сообщений. Боги, наверное, сошли с ума 4 / The Gods Must Be Crazy IV / Heung Gong wun fung kwong / Crazy Hong Kong (1993) DVDRip от bittracker | Р

323 | 26

745.06 МБ

В этой теме нет новых непрочитанных сообщений. Боги, наверное, сошли с ума 2 / The Gods Must Be Crazy II (1989) DVDRip от bittracker | Р

394 | 25

745.39 МБ

В этой теме нет новых непрочитанных сообщений. Боги, наверное, сошли с ума 3 / Безумное сафари / The Gods Must Be Crazy III / Fei zhou he shang (1991) DVDRip от bittracker | L1

449 | 34

745.39 МБ




Вы не можете начинать темы
Вы не можете отвечать на сообщения
Вы не можете редактировать свои сообщения
Вы не можете удалять свои сообщения
Вы не можете добавлять вложения

Перейти:  
 Вход
ppkBB3cker v.2 © 2008-2014 @ PPK
[ Time : 0.041s | 16 Queries | GZIP : Off ]

cron