img image001 image001 image001 image001 image001 image001 image001 image001 image001 image001 image001 image001 image001 image001 image001

Planets Sun Sun Sun
Статистика раздачи
Автор: Снежана | Размер: 4.25 ГБ | Добавлен: 22 июл 2013
Раздают: 13    Качают: 4
Скачать торрент
Скачать торрент
Описание торрента

СообщениеДобавлено: 22 июл 2013 

#77

Информация о фильме
Название: Город грехов
Оригинальное название: Sin City
Год выхода: 2005
Жанр: боевик, триллер, криминал, детектив
Режиссер: Фрэнк Миллер, Роберт Родригес, Квентин Тарантино
В ролях: Брюс Уиллис, Микки Рурк, Клайв Оуэн, Розарио Доусон, Джессика Альба, Бенисио Дель Торо, Джейми Кинг, Ник Стал, Девон Аоки, Алексис Бледел

О фильме:
Город грехов — это адская бездна преступлений. Один из его жителей пытается найти убийцу своей подруги. Другой, фотограф, случайно становится свидетелем убийства полицейского и старается скрыть преступление. Спуститесь по глухому переулку города, и вы найдете кое-что еще. В Городе грехов полиция коррумпирована и улицы смертельно опасны…

Страна: США
Продолжительность: 02:03:59
Перевод: Дублированный (Русский)

Файл
Кодек: MPEG2
Качество: DVD5 (BD исходник)
Видео: 720:576, 16:9, CBR
Звук: 48 kHz,AC3 2.0,448 kbps
Субтитры: Отсутствуют
Video
ID : 224 (0xE0)
Format : MPEG Video
Format version : Version 2
Format profile : Main@Main
Format settings, BVOP : Yes
Format settings, Matrix : Default
Format settings, GOP : M=3, N=15
Duration : 29mn 24s
Bit rate mode : Constant
Bit rate : 4 323 Kbps
Width : 720 pixels
Height : 576 pixels
Display aspect ratio : 16:9
Frame rate : 25.000 fps
Standard : PAL
Color space : YUV
Chroma subsampling : 4:2:0
Bit depth : 8 bits
Scan type : Interlaced
Scan order : Top Field First
Compression mode : Lossy
Bits/(Pixel*Frame) : 0.417
Stream size : 909 MiB (89%)

Audio
ID : 189 (0xBD)-128 (0x80)
Format : AC-3
Format/Info : Audio Coding 3
Mode extension : CM (complete main)
Muxing mode : DVD-Video
Duration : 29mn 24s
Bit rate mode : Constant
Bit rate : 448 Kbps
Channel(s) : 2 channels
Channel positions : Front: L R
Sampling rate : 48.0 KHz
Bit depth : 16 bits
Compression mode : Lossy
Delay relative to video : -528ms
Stream size : 94.2 MiB (9%)

Menu




   Похожие торренты   Торрент   Размер 
В этой теме нет новых непрочитанных сообщений. Город грехов / Sin City (2005) DVD9 | D

2 | 29

7.49 ГБ

В этой теме нет новых непрочитанных сообщений. Город грехов / Sin City (2005) BDRemux | Theatrical cut

9 | 6

25.88 ГБ

В этой теме нет новых непрочитанных сообщений. Город грехов / Sin City (2005) BDRip от HQCLUB

1244 | 220

2.18 ГБ

В этой теме нет новых непрочитанных сообщений. Город грехов / Sin City (2005) BDRip 720p

34 | 4

5.14 ГБ

В этой теме нет новых непрочитанных сообщений. Город грехов / Sin city (2005) BDRip от MediaClub | КПК

125 | 5

560.01 МБ

В этой теме нет новых непрочитанных сообщений. Город грехов / Sin City (2005) BDRip 1080p

242 | 20

4.37 ГБ

В этой теме нет новых непрочитанных сообщений. Город грехов / Sin City (2005) BDRip 1080p | Theatrical cut

784 | 129

7.76 ГБ




Вы не можете начинать темы
Вы не можете отвечать на сообщения
Вы не можете редактировать свои сообщения
Вы не можете удалять свои сообщения
Вы не можете добавлять вложения

Перейти:  
 Вход
ppkBB3cker v.2 © 2008-2014 @ PPK
[ Time : 0.040s | 15 Queries | GZIP : Off ]

cron