img image001 image001 image001 image001 image001 image001 image001 image001 image001 image001 image001 image001 image001 image001 image001 image001

Planets Sun Sun Sun
Статистика раздачи
Автор: Снежана | Размер: 7.87 ГБ | Добавлен: 25 июн 2018
Раздают: 8    Качают: 2
Скачать торрент
Скачать торрент
Описание торрента

СообщениеДобавлено: 25 июн 2018 

Название: Сын Али-Бабы
Оригинальное название: Son of Ali Baba
Год выпуска: 1952
Выпущено: США, Universal International Pictures (UI or U-I)
Жанр: Приключения
Режиссер: Курт Нойманн
В ролях: Тони Кёртис, Пайпер Лори, Сюзан Кэбот, Уильям Рейнольдс, Хью О`Брайан, Виктор Джори, Джералд Мор, Роберт Бэррат, Леон Беласко, Моррис Анкрум
О фильме: Средневековая Персия, Багдад. Наутро, после банкета в честь своего дня рождения, кадет императорской военной академии Кашма Баба, сын знаменитого Али-Бабы, обнаруживает в своем доме незнакомку, которая говорит, что её зовут Кики, что она танцовщица, сбежавшая от злого хозяина танцевальной группы из Марокко, и просит её спрятать. Однако вскоре выясняется, что никакой танцевальной группы из Марокко в городе нет, зато стражники ищут сбежавшую из гарема Халифа, наместника шаха, рабыню . Несмотря на обман девушки, успевший в неё влюбится благородный Кашма готов ей помочь, не подозревая, во что он оказывается втянутым…
Продолжительность: 01:15:00
Перевод: Любительский
Субтитры: Русские (Eksodus), английские
Навигация по главам: Есть
Файл
Качество: WEB-DL 1080p
Видео: MPEG-4 AVC, 14,3 Мбит/сек, 1440x1080, 23,976 кадра/сек
Аудио #1: AC3, 2 ch, 192 Кбит/сек | Русский, любительский (одноголосый закадровый) Kolobroad
Аудио #2: EAC3, 2 ch, 224 Кбит/сек | Английский, оригинал


Общее
Уникальный идентификатор : 212497439616525614082042084422039549212 (0x9FDD84A92B2BAAEF859B1BEDD106B51C)
Полное имя : Сын.Али-Бабы.1952.WEB-DL.1080p.mkv
Формат : Matroska
Версия формата : Version 2
Размер файла : 7,87 Гбайт
Продолжительность : 1 ч. 14 м.
Режим общего битрейта : Переменный
Общий поток : 15,0 Мбит/сек
Дата кодирования : UTC 2018-06-22 18:45:38
Программа кодирования : mkvmerge v5.8.0 ('No Sleep / Pillow') built on Sep 2 2012 15:37:04
Библиотека кодирования : libebml v1.2.3 + libmatroska v1.3.0
Видео
Идентификатор : 1
Формат : AVC
Формат/Информация : Advanced Video Codec
Профиль формата : High@L4
Настройки формата : CABAC / 4 Ref Frames
Параметр CABAC формата : Да
Параметр RefFrames формата : 4 кадра
Идентификатор кодека : V_MPEG4/ISO/AVC
Продолжительность : 1 ч. 14 м.
Вид битрейта : Переменный
Битрейт : 14,3 Мбит/сек
Максимальный битрейт : 15,0 Мбит/сек
Ширина : 1440 пикселей
Высота : 1080 пикселей
Соотношение сторон : 4:3
Соотношение сторон в оригинале : 4:3
Режим частоты кадров : Постоянный
Частота кадров : 23,976 (24000/1001) кадра/сек
Цветовое пространство : YUV
Субдискретизация насыщенности : 4:2:0
Битовая глубина : 8 бит
Тип развёртки : Прогрессивная
Бит/(Пиксели*Кадры) : 0.384
Размер потока : 7,50 Гбайт (95%)
Язык : English
Default : Да
Forced : Нет
Цветовой диапазон : Limited
Основные цвета : BT.709
Характеристики трансфера : BT.709
Коэффициенты матрицы : BT.709
Аудио #1
Идентификатор : 2
Формат : AC-3
Формат/Информация : Audio Coding 3
Идентификатор кодека : A_AC3
Продолжительность : 1 ч. 14 м.
Вид битрейта : Постоянный
Битрейт : 192 Кбит/сек
Каналы : 2 канала
Расположение каналов : Front: L R
Частота : 48,0 КГц
Частота кадров : 31,250 кадров/сек (1536 SPF)
Битовая глубина : 16 бит
Метод сжатия : С потерями
Размер потока : 103 Мбайт (1%)
Заголовок : VO | Kolobroad
Язык : Russian
По умолчанию : Да
Принудительно : Нет
Аудио #2
Идентификатор : 3
Формат : E-AC-3
Формат/Информация : Enhanced Audio Coding 3
Идентификатор кодека : A_EAC3
Продолжительность : 1 ч. 14 м.
Вид битрейта : Постоянный
Битрейт : 224 Кбит/сек
Каналы : 2 канала
Расположение каналов : Front: L R
Частота : 48,0 КГц
Частота кадров : 187,500 кадров/сек (256 SPF)
Метод сжатия : С потерями
Размер потока : 120 Мбайт (1%)
Заголовок : Original
Язык : English
По умолчанию : Нет
Принудительно : Нет
Текст #1
Идентификатор : 4
Формат : UTF-8
Идентификатор кодека : S_TEXT/UTF8
Идентификатор кодека/Информация : UTF-8 Plain Text
Заголовок : Eksodus
Язык : Russian
По умолчанию : Нет
Принудительно : Нет
Текст #2
Идентификатор : 5
Формат : UTF-8
Идентификатор кодека : S_TEXT/UTF8
Идентификатор кодека/Информация : UTF-8 Plain Text
Язык : English
По умолчанию : Нет
Принудительно : Нет
Текст #3
Идентификатор : 6
Формат : UTF-8
Идентификатор кодека : S_TEXT/UTF8
Идентификатор кодека/Информация : UTF-8 Plain Text
Заголовок : SDH
Язык : English
По умолчанию : Нет
Принудительно : Нет
Меню
00:00:00.000 : en:Chapter 1
00:04:34.441 : en:Chapter 2
00:13:34.772 : en:Chapter 3
00:21:47.431 : en:Chapter 4
00:26:07.483 : en:Chapter 5
00:32:59.978 : en:Chapter 6
00:39:47.302 : en:Chapter 7
00:47:31.974 : en:Chapter 8
00:53:02.763 : en:Chapter 9
01:00:26.414 : en:Chapter 10
01:06:19.225 : en:Chapter 11
01:13:27.111 : en:Chapter 12

• Исходник видео WEB-DL Amazon.

Сборка:



   Похожие торренты   Торрент   Размер 
В этой теме нет новых непрочитанных сообщений. Сын Али-Бабы / Son of Ali Baba (1952) WEB-DLRip-AVC | L1

13 | 1

1.75 ГБ

В этой теме нет новых непрочитанных сообщений. Бабы (1940) DVDRip

14 | 4

1.37 ГБ

В этой теме нет новых непрочитанных сообщений. Бабы (1940) SATRip от New-Team

10 | 5

1.46 ГБ

В этой теме нет новых непрочитанных сообщений. Бабы (1940) SATRip от New-Team

11 | 4

745.31 МБ

В этой теме нет новых непрочитанных сообщений. Бабы (1940) SATRip-AVC от New-Team

57 | 15

1.46 ГБ

В этой теме нет новых непрочитанных сообщений. Колье для снежной бабы (2007) DVDRip

365 | 7

1.37 ГБ

В этой теме нет новых непрочитанных сообщений. Приключения Али-Бабы и сорока разбойников (1979) DVDRip

150 | 25

2.19 ГБ




Вы не можете начинать темы
Вы не можете отвечать на сообщения
Вы не можете редактировать свои сообщения
Вы не можете удалять свои сообщения
Вы не можете добавлять вложения

Перейти:  
 Вход
ppkBB3cker v.2 © 2008-2014 @ PPK
[ Time : 0.550s | 15 Queries | GZIP : Off ]

cron