img image001 image001 image001 image001 image001 image001 image001 image001 image001 image001 image001 image001 image001 image001 image001 image001

Planets Sun Sun Sun
Статистика раздачи
Автор: Снежана | Размер: 7.36 ГБ | Добавлен: 25 июн 2018
Раздают: 37    Качают: 2
Скачать торрент
Скачать торрент
Описание торрента

СообщениеДобавлено: 25 июн 2018 



Информация о фильме
Название: Пришельцы в Америке
Оригинальное название: Just Visiting
Год выхода: 2001
Жанр: Фантастика, комедия, приключения
Режиссер: Жан-Мари Пуарэ
В ролях: Жан Рено, Кристина Эпплгейт, Кристиан Клавье, Мэтт Росс, Тара Рейд, Бриджит Уилсон, Джон Эйлуорд, Джордж Плимптон, Малкольм МакДауэлл, Мартин Аистроп, Наоми Армстронг, Эрик Авилес, Сара Бэдел, Билл Бэйли, Таб Бэйкер, Даг Баррон, Клифф Бэрри, Джанетт Бикертон, Люси Блэр, Уильям Букстон, Рой Бутчер, Ричард Бреммер, Ричард Бертон Браун, Фелипе Камачо, Александра Каплан, Дрю Энн Карлсон, Хелен Каро, Лоренцо Клемонс, Пол Коннелл, Лаура Кокс, Уильям Дамбра, Оливер Форд Дейвис, Эмили Димер, Альбена Додева, Лиза Додсон, Джеймс 'Айк' Ейчлинг, Мадлен Фишман, Мэтт Фурлин, Джейн Гэлловэй Хейтц, Мэтилок Гиббс, Росс Гибби
О фильме:
Два чудака из средневековой Франции, виконт Тибо и его слуга Андре, покорившие зрителей всего мира в легендарных комедиях "Коридоры времени" и "Коридоры времени 2", снова на экране! На этот раз двум героям предстоит отправиться в современные Соединенные Штаты Америки, чтобы в результате спасти от смерти возлюбленную Тибо Розалинд. В Штатах благородный рыцарь и его слуга попадают в такое количество сумасбродных и безумно смешных ситуаций, что их хватило бы на целую дюжину комедий...

Страна: США, Франция
Продолжительность: 01:28:26
Перевод: Дублированный, Профессиональный (двухголосый закадровый), Авторский (одноголосый закадровый)
Субтитры: Русские, английские
Файл
Кодек: x264
Качество: BDRip 1080p
Видео: High@L4.1, 1920x816, ~10200 kbps, 23.976 fps
Аудио 1: Русский AC3 5.1, 448 Kbps, 48.0 KHz (Дублированный) Мосфильм-Мастер
Аудио 2: Русский AC3 5.1, 448 Kbps, 48.0 KHz (Двухголосый закадровый) R5
Аудио 3: Русский AC3 2.0, 192 Kbps, 48.0 KHz (Одноголосый закадровый) Ю. Живов
Аудио 4: Английский AC3 5.1, 448 Kbps, 48.0 KHz (Оригинал)
General
Unique ID : 232170910122241864417629730829909369809 (0xAEAA7DA53345F5752411B1DC1BC023D1)
Complete name : F:КиношкаПришельцы в Америке_2001_BLU-RAY.1080p_[-=DoMiNo=-].mkv
Format : Matroska
Format version : Version 4 / Version 2
File size : 7.36 GiB
Duration : 1 h 28 min
Overall bit rate : 11.9 Mb/s
Movie name : Пришельцы в Америке
Deion : Новая уморительная комедия о приключениях средневекового рыцаря и его слуги, попавших из XII века в наше время. В голливудской версии знакомые герои из французской комедии «Коридоры времени» граф Тибо и его слуга Андре из-за ошибки мага попадают в современный Чикаго. Там они встречают прапраправнучку Тибо Джулию, и она помогает им вернуться из сумасшедшего XXI века в свое время. Чужие в мире машин и компьютеров, Тибо и Андре производят маленький переполох в большом городе.
Encoded date : UTC 2018-06-23 18:27:35
Writing application : mkvmerge v24.0.0 ('Beyond The Pale') 64-bit
Writing library : libebml v1.3.6 + libmatroska v1.4.9 / Lavf57.71.100
Attachments : poster.jpg
ACTORS : Jean Reno, Christina Applegate, Christian Clavier, Matt Ross, Tara Reid, Bridgette Wilson, John Aylward, Malcolm McDowell, George Plimpton, Sarah Badel, Kendra Torgan, Lucy Blair, Darryl Henriques
COUNTRY : France, United States
DATE : 2001-04-06
DIRECTOR : Jean-Marie Poiré
ENCODING_INFO : BluRay > MKV 1080p / H264 > X264 CRF 19.0 Пользовательский 2 / AC3 > COPY Безопасное / AC3 > COPY Безопасное / AC3 > COPY Безопасное / AC3 > COPY Безопасное
GENRE : комедия, фэнтези, фантастика
HD_VIDEO : 1
ITUNEXTC : mpaa|PG|200|
Language : und
MEDIA_TYPE : 9
ORIGINAL_TITLE : Just Visiting
PRODUCER : Patrice Ledoux, Ricardo Mestres
PUBLISHER : Bruin Grip Services, Gaumont, Hollywood Pictures
RATING : 4.70
WRITER : Christian Clavier, Jean-Marie Poiré, John Hughes
Video
ID : 1
Format : AVC
Format/Info : Advanced Video Codec
Format profile : High@L4.1
Format settings : CABAC / 5 Ref Frames
Format settings, CABAC : Yes
Format settings, ReFrames : 5 frames
Codec ID : V_MPEG4/ISO/AVC
Duration : 1 h 28 min
Bit rate : 10.4 Mb/s
Width : 1 920 pixels
Height : 816 pixels
Display aspect ratio : 2.35:1
Frame rate mode : Constant
Frame rate : 23.976 (24000/1001) FPS
Color space : YUV
Chroma subsampling : 4:2:0
Bit depth : 8 bits
Scan type : Progressive
Bits/(Pixel*Frame) : 0.276
Stream size : 6.41 GiB (87%)
Title : RIP_BY_-=DoMiNo=-
Writing library : x264 core 155 r2901M 7d0ff22
Encoding settings : cabac=1 / ref=5 / deblock=1:-3:-3 / analyse=0x3:0x113 / me=umh / subme=10 / psy=1 / psy_rd=1.05:0.15 / mixed_ref=1 / me_range=32 / chroma_me=1 / trellis=2 / 8x8dct=1 / cqm=0 / deadzone=21,11 / fast_pskip=0 / chroma_qp_offset=-3 / threads=6 / lookahead_threads=1 / sliced_threads=0 / nr=0 / decimate=1 / interlaced=0 / bluray_compat=0 / constrained_intra=0 / bframes=8 / b_pyramid=2 / b_adapt=2 / b_bias=0 / direct=3 / weightb=1 / open_gop=0 / weightp=2 / keyint=240 / keyint_min=24 / scenecut=40 / intra_refresh=0 / rc_lookahead=40 / rc=crf / mbtree=1 / crf=19.0 / qcomp=0.65 / qpmin=0 / qpmax=69 / qpstep=4 / ip_ratio=1.40 / aq=1:1.00
Language : English
Default : Yes
Forced : No
Color range : Limited
Color primaries : BT.709
Transfer characteristics : BT.709
Matrix coefficients : BT.709
Audio #1
ID : 2
Format : AC-3
Format/Info : Audio Coding 3
Codec ID : A_AC3
Duration : 1 h 28 min
Bit rate mode : Constant
Bit rate : 448 kb/s
Channel(s) : 6 channels
Channel positions : Front: L C R, Side: L R, LFE
Sampling rate : 48.0 kHz
Frame rate : 31.250 FPS (1536 SPF)
Bit depth : 16 bits
Compression mode : Lossy
Stream size : 283 MiB (4%)
Title : DUB_Мосфильм-Мастер
Language : Russian
Service kind : Complete Main
Default : Yes
Forced : No
Audio #2
ID : 3
Format : AC-3
Format/Info : Audio Coding 3
Codec ID : A_AC3
Duration : 1 h 28 min
Bit rate mode : Constant
Bit rate : 448 kb/s
Channel(s) : 6 channels
Channel positions : Front: L C R, Side: L R, LFE
Sampling rate : 48.0 kHz
Frame rate : 31.250 FPS (1536 SPF)
Bit depth : 16 bits
Compression mode : Lossy
Stream size : 283 MiB (4%)
Title : DVO_R5
Language : Russian
Service kind : Complete Main
Default : No
Forced : No
Audio #3
ID : 4
Format : AC-3
Format/Info : Audio Coding 3
Codec ID : A_AC3
Duration : 1 h 28 min
Bit rate mode : Constant
Bit rate : 192 kb/s
Channel(s) : 2 channels
Channel positions : Front: L R
Sampling rate : 48.0 kHz
Frame rate : 31.250 FPS (1536 SPF)
Bit depth : 16 bits
Compression mode : Lossy
Stream size : 121 MiB (2%)
Title : AVO_Ю. Живов
Language : Russian
Service kind : Complete Main
Default : No
Forced : No
Audio #4
ID : 5
Format : AC-3
Format/Info : Audio Coding 3
Codec ID : A_AC3
Duration : 1 h 28 min
Bit rate mode : Constant
Bit rate : 448 kb/s
Channel(s) : 6 channels
Channel positions : Front: L C R, Side: L R, LFE
Sampling rate : 48.0 kHz
Frame rate : 31.250 FPS (1536 SPF)
Bit depth : 16 bits
Compression mode : Lossy
Stream size : 283 MiB (4%)
Language : English
Service kind : Complete Main
Default : No
Forced : No
Text #1
ID : 6
Format : UTF-8
Codec ID : S_TEXT/UTF8
Codec ID/Info : UTF-8 Plain Text
Duration : 1 h 22 min
Bit rate : 86 b/s
Count of elements : 712
Stream size : 52.2 KiB (0%)
Title : RUS
Language : Russian
Default : No
Forced : No
Text #2
ID : 7
Format : UTF-8
Codec ID : S_TEXT/UTF8
Codec ID/Info : UTF-8 Plain Text
Duration : 1 h 22 min
Bit rate : 56 b/s
Count of elements : 1032
Stream size : 34.0 KiB (0%)
Title : ENG
Language : English
Default : No
Forced : No
Menu
00:00:00.000 : :Глава 1
00:05:59.693 : :Глава 2
00:10:43.809 : :Глава 3
00:14:12.268 : :Глава 4
00:20:56.213 : :Глава 5
00:27:40.909 : :Глава 6
00:35:42.724 : :Глава 7
00:42:59.744 : :Глава 8
00:55:11.475 : :Глава 9
01:06:20.393 : :Глава 10
01:14:55.658 : :Глава 11
01:21:23.921 : :Глава 12



   Похожие торренты   Торрент   Размер 
В этой теме нет новых непрочитанных сообщений. Пришельцы в Америке / Just Visiting (2001) BDRip-AVC | D

20 | 0

740.98 МБ

В этой теме нет новых непрочитанных сообщений. Пришельцы в Америке / Just Visiting (2001) BDRip-AVC от Conchita Wurst | D, P2, A

209 | 92

2.43 ГБ

В этой теме нет новых непрочитанных сообщений. Пришельцы в Америке / Just Visiting (2001) BDRip от Spirit Summer | D

299 | 8

1.36 ГБ

В этой теме нет новых непрочитанных сообщений. Пришельцы в Америке / Just Visiting (2001) BDRip 720р от SuperMin | D, A

185 | 21

4.38 ГБ

В этой теме нет новых непрочитанных сообщений. Пришельцы в Америке / Just Visiting (2001) DVDRip

23 | 16

1.37 ГБ

В этой теме нет новых непрочитанных сообщений. Пришельцы в Америке / Just Visiting (2001) DVDRip

13 | 3

1.46 ГБ

В этой теме нет новых непрочитанных сообщений. Пришельцы в Америке / Just Visiting (2001) DVDRip от dexter lex

1 | 19

698.37 МБ




Вы не можете начинать темы
Вы не можете отвечать на сообщения
Вы не можете редактировать свои сообщения
Вы не можете удалять свои сообщения
Вы не можете добавлять вложения

Перейти:  
 Вход
ppkBB3cker v.2 © 2008-2014 @ PPK
[ Time : 0.030s | 15 Queries | GZIP : Off ]

cron