img image001 image001 image001 image001 image001 image001 image001 image001 image001 image001 image001 image001 image001 image001 image001

Planets Sun Sun Sun

COVID-19 - Последняя информация о коронавирусе на сайте Минздрава


Статистика раздачи
Автор: Снежана | Размер: 1.75 ГБ | Добавлен: 25 июн 2018
Раздают: 6    Качают: 3
Скачать торрент
Скачать торрент
Описание торрента

СообщениеДобавлено: 25 июн 2018 




Информация о фильме
Название: Сын Али-Бабы
Оригинальное название: Son of Ali Baba
Год выхода: 1952
Жанр: Фэнтези, боевик, приключения
Режиссер: Курт Нойманн
В ролях: Тони Кёртис, Пайпер Лори, Сюзан Кэбот, Уильям Рейнольдс, Хью О`Брайан, Виктор Джори, Джералд Мор, Роберт Бэррат, Леон Беласко, Моррис Анкрум
О фильме:
Средневековая Персия, Багдад. Наутро, после банкета в честь своего дня рождения, кадет императорской военной академии Кашма Баба, сын знаменитого Али-Бабы, обнаруживает в своем доме незнакомку, которая говорит, что её зовут Кики, что она танцовщица, сбежавшая от злого хозяина танцевальной группы из Марокко, и просит её спрятать. Однако вскоре выясняется, что никакой танцевальной группы из Марокко в городе нет, зато стражники ищут сбежавшую из гарема Халифа, наместника шаха, рабыню . Несмотря на обман девушки, успевший в неё влюбится благородный Кашма готов ей помочь, не подозревая, во что он оказывается втянутым…

Страна: США
Студия: Universal International Pictures (UI or U-I)
Продолжительность: 01:15:00
Перевод: Любительский одноголосый (Kolobroad)
Релиз от: Охрана (NNMCLUB)
Файл
Кодек: x264
Качество: WEB-DLRip-AVC
Видео: AVC/H.264, 768x576, ~2960 Kbps
Аудио 1: Русский, AC3, 2 ch, 192 Kbps, 48.0 kHz
Аудио 2: Английский, AC3, 2 ch, 192 Kbps, 48.0 kHz
Субтитры: Английские (Full, SDH)


Общее
Уникальный идентификатор : 206735538768650476467529388146728045937 (0x9B87D10411FC8079B394924E88F30D71)
Полное имя : F:DownloadsСын Али-Бабы. 1952. NNMCLUB.mkv
Формат : Matroska
Версия формата : Version 4 / Version 2
Размер файла : 1,75 Гбайт
Продолжительность : 1 ч. 15 м.
Общий поток : 3346 Кбит/сек
Дата кодирования : UTC 2018-06-23 22:01:18
Программа кодирования : mkvmerge v7.9.0 ('Birds') 64bit
Библиотека кодирования : libebml v1.3.1 + libmatroska v1.4.2
Видео
Идентификатор : 1
Формат : AVC
Формат/Информация : Advanced Video Codec
Профиль формата : High@L4.1
Настройки формата : CABAC / 12 Ref Frames
Параметр CABAC формата : Да
Параметр RefFrames формата : 12 кадров
Идентификатор кодека : V_MPEG4/ISO/AVC
Продолжительность : 1 ч. 14 м.
Битрейт : 2960 Кбит/сек
Ширина : 768 пикселей
Высота : 576 пикселей
Соотношение сторон : 4:3
Режим частоты кадров : Постоянный
Частота кадров : 23,976 (24000/1001) кадра/сек
Цветовое пространство : YUV
Субдискретизация насыщенности : 4:2:0
Битовая глубина : 8 бит
Тип развёртки : Прогрессивная
Бит/(Пиксели*Кадры) : 0.279
Размер потока : 1,55 Гбайт (88%)
Заголовок : Son of Ali Baba
Библиотека кодирования : x264 core 146 r2538 121396c
Настройки программы : cabac=1 / ref=12 / deblock=1:-1:-1 / analyse=0x3:0x113 / me=umh / subme=10 / psy=1 / psy_rd=1.00:0.10 / mixed_ref=1 / me_range=32 / chroma_me=1 / trellis=2 / 8x8dct=1 / cqm=0 / deadzone=21,11 / fast_pskip=0 / chroma_qp_offset=-3 / threads=6 / lookahead_threads=1 / sliced_threads=0 / nr=0 / decimate=0 / interlaced=0 / bluray_compat=0 / constrained_intra=0 / bframes=7 / b_pyramid=2 / b_adapt=2 / b_bias=0 / direct=3 / weightb=1 / open_gop=0 / weightp=2 / keyint=250 / keyint_min=25 / scenecut=40 / intra_refresh=0 / rc_lookahead=60 / rc=2pass / mbtree=1 / bitrate=2960 / ratetol=1.0 / qcomp=0.60 / qpmin=0 / qpmax=69 / qpstep=4 / cplxblur=20.0 / qblur=0.5 / vbv_maxrate=14000 / vbv_bufsize=14000 / nal_hrd=none / filler=0 / ip_ratio=1.40 / aq=1:1.00
Язык : English
Default : Да
Forced : Нет
Аудио #1
Идентификатор : 2
Формат : AC-3
Формат/Информация : Audio Coding 3
Идентификатор кодека : A_AC3
Продолжительность : 1 ч. 15 м.
Вид битрейта : Постоянный
Битрейт : 192 Кбит/сек
Каналы : 2 канала
Расположение каналов : Front: L R
Частота : 48,0 КГц
Частота кадров : 31,250 кадров/сек (1536 SPF)
Битовая глубина : 16 бит
Метод сжатия : С потерями
Размер потока : 103 Мбайт (6%)
Заголовок : Одноголосый закадровый, Kolobroad
Язык : Russian
ServiceKind : Complete Main
Default : Да
Forced : Нет
Аудио #2
Идентификатор : 3
Формат : AC-3
Формат/Информация : Audio Coding 3
Идентификатор кодека : A_AC3
Продолжительность : 1 ч. 14 м.
Вид битрейта : Постоянный
Битрейт : 192 Кбит/сек
Каналы : 2 канала
Расположение каналов : Front: L R
Частота : 48,0 КГц
Частота кадров : 31,250 кадров/сек (1536 SPF)
Битовая глубина : 16 бит
Метод сжатия : С потерями
Размер потока : 103 Мбайт (6%)
Заголовок : Оригинал
Язык : English
ServiceKind : Complete Main
Default : Нет
Forced : Нет
Текст #1
Идентификатор : 4
Формат : UTF-8
Идентификатор кодека : S_TEXT/UTF8
Идентификатор кодека/Информация : UTF-8 Plain Text
Продолжительность : 1 ч. 13 м.
Битрейт : 62 бит/сек
ElementCount : 1028
Размер потока : 33,8 Кбайт (0%)
Заголовок : Full
Язык : English
Default : Нет
Forced : Нет
Текст #2
Идентификатор : 5
Формат : UTF-8
Идентификатор кодека : S_TEXT/UTF8
Идентификатор кодека/Информация : UTF-8 Plain Text
Продолжительность : 1 ч. 14 м.
Битрейт : 66 бит/сек
ElementCount : 1137
Размер потока : 36,6 Кбайт (0%)
Заголовок : SDH
Язык : English
Default : Нет
Forced : Нет



   Похожие торренты   Торрент   Размер 
В этой теме нет новых непрочитанных сообщений. Сын Али-Бабы / Son of Ali Baba (1952) WEB-DL 1080p от KORSAR | L1

0 | 4

7.87 ГБ

В этой теме нет новых непрочитанных сообщений. Али и Нино / Ali and Nino (2016) WEB-DLRip 720p | L

43 | 0

3.15 ГБ

В этой теме нет новых непрочитанных сообщений. Сын / The Son [01x01-02 из 10] (2017) WEB-DLRip | LostFilm

88 | 29

1.46 ГБ

В этой теме нет новых непрочитанных сообщений. Сын / The Son [01x01 из 10] (2017) WEB-DLRip от qqss44 | LostFilm

30 | 2

600.35 МБ

В этой теме нет новых непрочитанных сообщений. Сын / The Son [01x01-02 из 10] (2017) WEB-DLRip от Kaztorrents | КПК | LostFilm

9 | 9

596.68 МБ

В этой теме нет новых непрочитанных сообщений. Сын Иисуса / Jesus' Son (1999) WEB-DLRip от Koenig | P

17 | 6

1.45 ГБ

В этой теме нет новых непрочитанных сообщений. Сын / The Son [S01] (2017) WEB-DLRip от Generalfilm | КПК | LostFilm

19 | 6

1.62 ГБ




Вы не можете начинать темы
Вы не можете отвечать на сообщения
Вы не можете редактировать свои сообщения
Вы не можете удалять свои сообщения
Вы не можете добавлять вложения

Перейти:  
Контактная информация: rstracker[пёсик]yandex.ru
 Вход
ppkBB3cker v.2 © 2008-2014 @ PPK
[ Time : 0.018s | 18 Queries | GZIP : Off ]

cron