img image001 image001 image001 image001 image001 image001 image001 image001 image001 image001 image001 image001 image001 image001 image001 image001

Planets Sun Sun Sun
Статистика раздачи
Автор: Снежана | Размер: 727.45 МБ | Добавлен: 25 июн 2018
Раздают: 11    Качают: 1
Скачать торрент
Скачать торрент
Описание торрента

СообщениеДобавлено: 25 июн 2018 

Информация о фильме
Название: Доистерия! / Доисторические
Оригинальное название: Prehysteria!
Год выхода: 1993
Жанр: фантастика, комедия, приключения, семейный
Режиссер: Альберт Бэнд, Чарльз Бэнд
В ролях: Бретт Каллен, Коллин Моррис, Саманта Миллс, Остин О’Брайен, Тони Лонго, Стюарт Фрэткин, Стивен Ли, Том Уильямс, Гилл Гэйл, Питер Марк Васкес
О фильме:
Владелец антикварного магазина находит в джунглях Латинской Америки, в священной пещере в горах замороженные и весьма крупные яйца. Из антикварного магазина яйца случайно попадают в семью, перепутавшую сумку-холодильник. Они приносят яйца домой, а их собака, щенят которой только что отдали, высиживает их. Вскоре из яиц вылупились динозаврики. Семья воспитывает зверюшек, а владелец магазина готов на все, чтобы вернуть свою собственность и заработать на них миллионы.

Производство: США / Full Moon Entertainment, Moonbeam Entertainment, Paramount Pictures
Продолжительность: 01:20:35
Перевод: авторский одноголосый [Андрей Дольский]
Файл
Качество: VHSRip
Формат: AVI
Видео: XviD, 512x384 (4:3), 25.000 fps, 1124 kbps, 0.229 bit/pixel
Аудио: русский, MP3 2.0, 48 kHz, 128 kbps
Общее
Полное имя : Prehysteria.1993.VHSRip.avi
Формат : AVI
Формат/Информация : Audio Video Interleave
Размер файла : 727 Мбайт
Продолжительность : 1 ч. 20 м.
Общий поток : 1262 Кбит/сек
Программа кодирования : VirtualDubModRus 1.5.10.2 (build 2542/release)
Библиотека кодирования : VirtualDubMod build 2542/release
Видео
Идентификатор : 0
Формат : MPEG-4 Visual
Профиль формата : Advanced Simple@L5
Параметр BVOP формата : 2
Параметр QPel формата : Нет
Параметр GMC формата : Без точки перехода
Параметр матрицы формата : Default (H.263)
Режим смешивания : Сжатый битовый поток
Идентификатор кодека : XVID
Идентификатор кодека/Подсказка : XviD
Продолжительность : 1 ч. 20 м.
Битрейт : 1124 Кбит/сек
Ширина : 512 пикселей
Высота : 384 пикселя
Соотношение сторон : 4:3
Частота кадров : 25,000 кадров/сек
Цветовое пространство : YUV
Субдискретизация насыщенности : 4:2:0
Битовая глубина : 8 бит
Тип развёртки : Прогрессивная
Метод сжатия : С потерями
Бит/(Пиксели*Кадры) : 0.229
Размер потока : 648 Мбайт (89%)
Библиотека кодирования : XviD 1.2.1 (UTC 2008-12-04)
Аудио
Идентификатор : 1
Формат : MPEG Audio
Версия формата : Version 1
Профиль формата : Layer 3
Режим : Joint stereo
Идентификатор кодека : 55
Идентификатор кодека/Подсказка : MP3
Продолжительность : 1 ч. 20 м.
Вид битрейта : Постоянный
Битрейт : 128 Кбит/сек
Каналы : 2 канала
Частота : 48,0 КГц
Метод сжатия : С потерями
Размер потока : 73,8 Мбайт (10%)
Выравнивание : Разделение по промежуткам
Продолжительность промежутка : 40 мс. (1,00 видеокадр)
Время предзагрузки промежутка : 500 мс.



   Похожие торренты   Торрент   Размер 
В этой теме нет новых непрочитанных сообщений. Шиш на кокуй! (1993) VHSRip

401 | 19

1.36 ГБ

В этой теме нет новых непрочитанных сообщений. Джош и Сэм / Josh and S.A.M. (1993) VHSRip | A

2 | 2

1.59 ГБ

В этой теме нет новых непрочитанных сообщений. Все под Богом ходим... (1993) VHSRip от AND03AND

0 | 5

730.94 МБ

В этой теме нет новых непрочитанных сообщений. Линда / Linda (1993) VHSRip от Pshichko66

49 | 9

1.37 ГБ

В этой теме нет новых непрочитанных сообщений. Супермен поневоле, или Эротический мутант (1993) VHSRip

238 | 41

1.07 ГБ

В этой теме нет новых непрочитанных сообщений. Как две капли воды 2 / Mirror Images II (1993) VHSRip | A

407 | 60

1.09 ГБ

В этой теме нет новых непрочитанных сообщений. Ночная стража 3 (Ночное наблюдение 3, Ночные глаза 3) / Night Eyes Three (1993) VHSRip | A

10 | 16

699.43 МБ




Вы не можете начинать темы
Вы не можете отвечать на сообщения
Вы не можете редактировать свои сообщения
Вы не можете удалять свои сообщения
Вы не можете добавлять вложения

Перейти:  
 Вход
ppkBB3cker v.2 © 2008-2014 @ PPK
[ Time : 0.034s | 16 Queries | GZIP : Off ]

cron