img image001 image001 image001 image001 image001 image001 image001 image001 image001 image001 image001 image001 image001 image001 image001 image001

Planets Sun Sun Sun
Статистика раздачи
Автор: Снежана | Размер: 1.08 ГБ | Добавлен: 25 июн 2018
Раздают: 0    Качают: 0
Скачать торрент
Скачать торрент
Описание торрента

СообщениеДобавлено: 25 июн 2018 

Страна: США
Жанр: Боевик
Год выпуска: 1996
Продолжительность: 1:25:38
Перевод: Авторский (одноголосый закадровый) Сергей Визгунов
Субтитры: нет
Оригинальная аудиодорожка: английский
Режиссер: Дэмиэн Ли / Damian Lee
В ролях: Дон «Дракон» Уилсон, Майкл Андерсон мл., Родди Пайпер, Брайан Уоррен, Кейт Гринхаус, Дэйв Николс, Бретт Хэлси, Ричард Во, Дэвид Спэрроу, Джон Стоунхэм ст., Андерсон Диксон, Майкл Бернардо, Боб Дэнисон, Карен Вильнёв, Джозеф Манн
Описание: Стратегически важная плотина захвачена группой отпетых и хорошо подготовленных головорезов с целью получения выкупа у правительства. Федеральные власти пытаются выиграть время, но не предпринимают практически никаких действий.
И если бы не отважный помощник шерифа Джейкоб Харпер, проникший на плотину, чтобы вызволить своего отца, оказавшегося среди заложников, то и неизвестно, чем бы все это закончилось! Наверняка — взрывом плотины и гибелью многих тысяч людей.

Качество видео: DVDRip-AVC
Формат видео: MKV
Видео: 704x576 , 25.000 fps, AVC , 1 424 Kbps
Аудио: 48 KHz, MP3, 2 ch, 160 Kbps
Аудио 2: 48 KHz, AC3, 2 ch, 192 Kbps
Complete name Последний рывок 1996 (Vizgunov).mkv
Format : Matroska
Format version : Version 2
File size : 1.08 GiB
Duration : 1h 25mn
Overall bit rate : 1 812 Kbps
Encoded date : UTC 2017-06-04 16:25:50
Writing application : mkvmerge v3.3.0 ('Language') built on Mar 24 2010 14:59:24
Writing library : libebml v0.8.0 + libmatroska v0.9.0
Video
ID : 1
Format : AVC
Format/Info : Advanced Video Codec
Format profile : High@L3
Format settings, CABAC : Yes
Format settings, ReFrames : 4 frames
Codec ID : V_MPEG4/ISO/AVC
Duration : 1h 25mn
Bit rate : 1 424 Kbps
Width : 704 pixels
Height : 576 pixels
Display aspect ratio : 4:3
Original display aspect rat : 4:3
Frame rate mode : Constant
Frame rate : 25.000 fps
Standard : PAL
Color space : YUV
Chroma subsampling : 4:2:0
Bit depth : 8 bits
Scan type : Progressive
Bits/(Pixel*Frame) : 0.140
Stream size : 872 MiB (79%)
Writing library : x264 core 120
Encoding settings : cabac=1 / ref=3 / deblock=1:0:0 / analyse=0x3:0x113 / me=hex / subme=7 / psy=1 / psy_rd=1.00:0.00 / mixed_ref=1 / me_range=16 / chroma_me=1 / trellis=1 / 8x8dct=1 / cqm=0 / deadzone=21,11 / fast_pskip=1 / chroma_qp_offset=-2 / threads=6 / sliced_threads=0 / nr=0 / decimate=1 / interlaced=0 / bluray_compat=0 / constrained_intra=0 / bframes=3 / b_pyramid=2 / b_adapt=2 / b_bias=0 / direct=1 / weightb=1 / open_gop=0 / weightp=2 / keyint=250 / keyint_min=25 / scenecut=40 / intra_refresh=0 / rc_lookahead=50 / rc=crf / mbtree=1 / crf=20.0 / qcomp=0.60 / qpmin=3 / qpmax=69 / qpstep=4 / ip_ratio=1.40 / aq=1:1.00
Language : English
Default : Yes
Forced : No
Color range : Limited
Color primaries : BT.601 NTSC
Transfer characteristics : BT.709
Matrix coefficients : BT.601
Audio #1
ID : 2
Format : MPEG Audio
Format version : Version 1
Format profile : Layer 3
Mode : Joint stereo
Codec ID : A_MPEG/L3
Codec ID/Hint : MP3
Duration : 1h 25mn
Bit rate mode : Constant
Bit rate : 160 Kbps
Channel(s) : 2 channels
Sampling rate : 48.0 KHz
Compression mode : Lossy
Stream size : 98.0 MiB (9%)
Default : No
Forced : No
Audio #2
ID : 3
Format : AC-3
Format/Info : Audio Coding 3
Mode extension : CM (complete main)
Format settings, Endianness : Big
Codec ID : A_AC3
Duration : 1h 25mn
Bit rate mode : Constant
Bit rate : 192 Kbps
Channel(s) : 2 channels
Channel positions : Front: L R
Sampling rate : 48.0 KHz
Frame rate : 31.250 fps (1536 spf)
Compression mode : Lossy
Stream size : 118 MiB (11%)
Default : Yes
Forced : No





   Похожие торренты   Торрент   Размер 
В этой теме нет новых непрочитанных сообщений. Последний рывок / Terminal rush (1996) DVDRip | P

4 | 0

722.11 МБ

В этой теме нет новых непрочитанных сообщений. Последний Рывок / Astronaut / The Last Push (2012) WEB-DL Rip 1080p | Sub

539 | 30

1.34 ГБ

В этой теме нет новых непрочитанных сообщений. Виртуальный полицейский / Terminal Justice (1996) DVDRip | P, A

41 | 5

1.46 ГБ

В этой теме нет новых непрочитанных сообщений. Адреналин / Adrenalin: Fear the Rush (1996) DVDRip | P

12 | 4

1.46 ГБ

В этой теме нет новых непрочитанных сообщений. Рывок (2010) DVDRip от Киномагия

2 | 3

2.19 ГБ

В этой теме нет новых непрочитанных сообщений. Рывок (2010) DVDRip от КинозалSAT

1 | 13

699.74 МБ

В этой теме нет новых непрочитанных сообщений. Последний праздник / La derniere fete (1996) DVDRip | P

43 | 9

1.46 ГБ




Вы не можете начинать темы
Вы не можете отвечать на сообщения
Вы не можете редактировать свои сообщения
Вы не можете удалять свои сообщения
Вы не можете добавлять вложения

Перейти:  
 Вход
ppkBB3cker v.2 © 2008-2014 @ PPK
[ Time : 0.030s | 15 Queries | GZIP : Off ]

cron