img image001 image001 image001 image001 image001 image001 image001 image001 image001 image001 image001 image001 image001 image001 image001 image001

Planets Sun Sun Sun
Статистика раздачи
Автор: Снежана | Размер: 1.37 ГБ | Добавлен: 25 июн 2018
Раздают: 14    Качают: 0
Скачать торрент
Скачать торрент
Описание торрента

СообщениеДобавлено: 25 июн 2018 

Страна: США
Жанр: Фантастический боевик
Год выпуска: 1991
Продолжительность: 01:12:13
Перевод: Авторский (одноголосый закадровый) Леонид Володарский
Субтитры: нет
Оригинальная аудиодорожка: английский
Режиссер: Дэмиан Клаус / Damian Klaus
В ролях: Дон «Дракон» Уилсон, Мег Фостер, Крис Пенн, Эб Лоттимер, Аль Руссо, Джефф Померанц, Линда Дона, Шон Филипс, Райан МакДональд, Хейден Коннер
Описание: К 2025 году все, кто побогаче, переселятся с Земли на Луну или более далекие небесные тела, а Земля, после многочисленных войн, превратится в прибежище бандитов и негодяев. Появятся компании, которые будут заниматься пересадкой человеческих органов в промышленных масштабах, а, следовательно, возникнет нужда в самих этих органах.
Нэнси Морган, жена погибшего изобретателя, прилетит на Землю, чтобы найти виновника смерти ее супруга. Вряд ли бы ей удалось добиться поставленной цели, если бы ей на помощь не пришел киберон Макс Уокер — андроид из отряда «охотников за головами»… Удар! Еще удар! Попробуй выжить на планете Земля в 2025 году…




Качество видео: DVDRip
Формат видео: AVI
Видео: 640x480 (1.33:1), 23.976 fps, XviD build 73 2313 kbps avg avg, 0.32 bit/pixel
Аудио 1: AC3 Dolby Digital, 48000Hz 2/0 (L,R) ch (mono), 192.00 kbps avg
Аудио 2: AC3 Dolby Digital, 48000Hz 2/0 (L,R) ch, 192.00 kbps avg
Удар из будущего - Future Kick (by ale_x2008).avi
Format : AVI
Format/Info : Audio Video Interleave
File size : 1.37 GiB
Duration : 1 h 12 min
Overall bit rate : 2 712 kb/s
Movie name : Удар из будущего - Future Kick (by ale_x2008)
Director : by ale_X2008
Writing application : VirtualDubMod 1.5.10.2 (build 2540/release)
Copyright : Edich2
Video
ID : 0
Format : MPEG-4 Visual
Format profile : Advanced Simple@L5
Format settings : BVOP2 / Custom Matrix
Format settings, BVOP : 2
Format settings, QPel : No
Format settings, GMC : No warppoints
Format settings, Matrix : Custom
Codec ID : XVID
Codec ID/Hint : XviD
Duration : 1 h 12 min
Bit rate : 2 314 kb/s
Width : 640 pixels
Height : 480 pixels
Display aspect ratio : 4:3
Frame rate : 23.976 (24000/1001) FPS
Color space : YUV
Chroma subsampling : 4:2:0
Bit depth : 8 bits
Scan type : Progressive
Compression mode : Lossy
Bits/(Pixel*Frame) : 0.314
Stream size : 1.17 GiB (85%)
Writing library : XviD 73
Audio #1
ID : 1
Format : AC-3
Format/Info : Audio Coding 3
Codec ID : 2000
Duration : 1 h 12 min
Bit rate mode : Constant
Bit rate : 192 kb/s
Channel(s) : 2 channels
Channel positions : Front: L R
Sampling rate : 48.0 kHz
Frame rate : 31.250 FPS (1536 SPF)
Bit depth : 16 bits
Compression mode : Lossy
Stream size : 99.2 MiB (7%)
Alignment : Split accross interleaves
Interleave, duration : 42 ms (1.00 video frame)
Interleave, preload duratio : 500 ms
Service kind : Complete Main
Audio #2
ID : 2
Format : AC-3
Format/Info : Audio Coding 3
Codec ID : 2000
Duration : 1 h 12 min
Bit rate mode : Constant
Bit rate : 192 kb/s
Channel(s) : 2 channels
Channel positions : Front: L R
Sampling rate : 48.0 kHz
Frame rate : 31.250 FPS (1536 SPF)
Bit depth : 16 bits
Compression mode : Lossy
Stream size : 99.2 MiB (7%)
Alignment : Split accross interleaves
Interleave, duration : 42 ms (1.00 video frame)
Interleave, preload duratio : 500 ms
Service kind : Complete Main





   Похожие торренты   Торрент   Размер 
В этой теме нет новых непрочитанных сообщений. Удар из будущего / Future Kick (1991) DVDRip | P

98 | 11

748.67 МБ

В этой теме нет новых непрочитанных сообщений. Удар из будущего / Future Kick (1991) DVDRip-AVC от Freak Chaos | P

68 | 15

1.51 ГБ

В этой теме нет новых непрочитанных сообщений. Удар / Kick (2014) BDRip 720p | P

37 | 3

8.14 ГБ

В этой теме нет новых непрочитанных сообщений. Драйв / Удар / Kick (2014) HDRip | P

307 | 34

1.36 ГБ

В этой теме нет новых непрочитанных сообщений. Драйв / Удар / Kick (2014) HDRip-AVC от ExKinoRay | L

1312 | 220

2.64 ГБ

В этой теме нет новых непрочитанных сообщений. Йор, охотник будущего / Il mondo di Yor / Yor, the Hunter from the Future (1983) DVDRip-AVC | A

80 | 10

1.46 ГБ

В этой теме нет новых непрочитанных сообщений. Люди Икс: Дни минувшего будущего / X-Men: Days of Future Past (2014) DVDRip-AVC | D

351 | 167

2.99 ГБ




Вы не можете начинать темы
Вы не можете отвечать на сообщения
Вы не можете редактировать свои сообщения
Вы не можете удалять свои сообщения
Вы не можете добавлять вложения

Перейти:  
 Вход
ppkBB3cker v.2 © 2008-2014 @ PPK
[ Time : 0.033s | 18 Queries | GZIP : Off ]

cron