img image001 image001 image001 image001 image001 image001 image001 image001 image001 image001 image001 image001 image001 image001 image001 image001

Planets Sun Sun Sun
Статистика раздачи
Автор: Снежана | Размер: 29.31 ГБ | Добавлен: 25 июн 2018
Раздают: 11    Качают: 2
Скачать торрент
Скачать торрент
Описание торрента

СообщениеДобавлено: 25 июн 2018 

Информация о фильме
Название: Последняя запись
Оригинальное название: The Last Note
Год выхода: 2017
Жанр: драма, военный
Режиссер: Пантелис Вулгарис
В ролях: Тасос Димас, Андре Хеннике, Гиоргос Карамалегос, Андреас Константину, Василис Кукалани, Мелия Крейлинг, Лукас Кириазис и др.
Описание: Фильм основан на реальных событиях, произошедших в апреле 1944 года, когда немецкий генерал и три офицера были убиты партизанами Народно-освободительной армии Греции. В качестве ответной меры немецкое командование постановило расстрелять 1 мая 1944 года двести политических заключенных, противников диктатуры генерала Метаксаса.

Страна: Греция
Продолжительность: 01:57:17
Перевод: Любительский (одноголосый закадровый) Олег Воротилин по субтитрам mike7025
Субтитры: русские mike7025, английские
Оригинальная аудиодорожка: греческий
Файл
Качество: BDRemux 1080р
Видео: MPEG-4 AVC / 1920x1080 / 16:9 / 24.0 fps / 28966 kbps / High@L4.1
Аудио 1: Rus / DTS-HD MA / 48.0 KHz / 5.1 / 3394 kbps / 24 bit (DTS Core 48.0 KHz / 5.1 / 1509 kbps / 24 bit) / Олег Воротилин
Аудио 2: Ell / DTS-HD MA / 48.0 KHz / 5.1 / 3382 kbps / 24 bit (DTS Core 48.0 KHz / 5.1 / 1509 kbps / 24 bit

Общее
Уникальный идентификатор : 114487082108826857202480189693850740940 (0x562168F3A7DC2CD7904D69BDB34EE8CC)
Полное имя : The.Last.Note.2017.BDRemux.1080p.mkv
Формат : Matroska
Версия формата : Version 4 / Version 2
Размер файла : 29,3 Гбайт
Продолжительность : 1 ч. 57 м.
Режим общего битрейта : Переменный
Общий поток : 35,8 Мбит/сек
Название фильма : The.Last.Note.2017.BDRemux.1080p-porvaliparus
Дата кодирования : UTC 2018-06-24 04:22:13
Программа кодирования : mkvmerge v24.0.0 ('Beyond The Pale') 64-bit
Библиотека кодирования : libebml v1.3.6 + libmatroska v1.4.9
Видео
Идентификатор : 1
Формат : AVC
Формат/Информация : Advanced Video Codec
Профиль формата : High@L4.1
Настройки формата : CABAC / 4 Ref Frames
Параметр CABAC формата : Да
Параметр RefFrames формата : 4 кадра
Параметр GOP формата : M=3, N=24
Идентификатор кодека : V_MPEG4/ISO/AVC
Продолжительность : 1 ч. 57 м.
Вид битрейта : Переменный
Битрейт : 29,0 Мбит/сек
Максимальный битрейт : 36,0 Мбит/сек
Ширина : 1920 пикселей
Высота : 1080 пикселей
Соотношение сторон : 16:9
Режим частоты кадров : Постоянный
Частота кадров : 24,000 кадра/сек
Стандарт вещания : NTSC
Цветовое пространство : YUV
Субдискретизация насыщенности : 4:2:0
Битовая глубина : 8 бит
Тип развёртки : Прогрессивная
Бит/(Пиксели*Кадры) : 0.583
Размер потока : 23,8 Гбайт (81%)
Заголовок : The.Last.Note.2017.BDRemux.1080p
Default : Да
Forced : Нет
Цветовой диапазон : Limited
Основные цвета : BT.709
Характеристики трансфера : BT.709
Коэффициенты матрицы : BT.709
Аудио #1
Идентификатор : 2
Формат : DTS
Формат/Информация : Digital Theater Systems
Профиль формата : MA / Core
Идентификатор кодека : A_DTS
Продолжительность : 1 ч. 57 м.
Вид битрейта : Переменный / Постоянный
Битрейт : 3394 Кбит/сек / 1509 Кбит/сек
Каналы : 6 каналов
Расположение каналов : Front: L C R, Side: L R, LFE
Частота : 48,0 КГц
Частота кадров : 93,750 кадра/сек (512 SPF)
Битовая глубина : 24 бит
Метод сжатия : Без потерь / Lossy
Размер потока : 2,78 Гбайт (9%)
Заголовок : VO [О. Воротилин]
Язык : Russian
Default : Да
Forced : Нет
Аудио #2
Идентификатор : 3
Формат : DTS
Формат/Информация : Digital Theater Systems
Профиль формата : MA / Core
Идентификатор кодека : A_DTS
Продолжительность : 1 ч. 57 м.
Вид битрейта : Переменный / Постоянный
Битрейт : 3382 Кбит/сек / 1509 Кбит/сек
Каналы : 6 каналов
Расположение каналов : Front: L C R, Side: L R, LFE
Частота : 48,0 КГц
Частота кадров : 93,750 кадра/сек (512 SPF)
Битовая глубина : 24 бит
Метод сжатия : Без потерь / Lossy
Размер потока : 2,77 Гбайт (9%)
Язык : Greek
Default : Нет
Forced : Нет
Текст #1
Идентификатор : 4
Формат : UTF-8
Идентификатор кодека : S_TEXT/UTF8
Идентификатор кодека/Информация : UTF-8 Plain Text
Продолжительность : 1 ч. 51 м.
Битрейт : 57 бит/сек
ElementCount : 831
Размер потока : 46,5 Кбайт (0%)
Заголовок : mike7025
Язык : Russian
Default : Нет
Forced : Нет
Текст #2
Идентификатор : 5
Формат : UTF-8
Идентификатор кодека : S_TEXT/UTF8
Идентификатор кодека/Информация : UTF-8 Plain Text
Продолжительность : 1 ч. 51 м.
Битрейт : 33 бит/сек
ElementCount : 831
Размер потока : 26,9 Кбайт (0%)
Язык : English
Default : Нет
Forced : Нет
Меню
00:00:00.000 : en:Chapter 1
00:04:42.042 : en:Chapter 2
00:14:31.375 : en:Chapter 3
00:23:55.833 : en:Chapter 4
00:36:56.667 : en:Chapter 5
00:44:26.083 : en:Chapter 6
00:53:03.125 : en:Chapter 7
01:06:34.292 : en:Chapter 8
01:16:02.167 : en:Chapter 9
01:27:33.083 : en:Chapter 10
01:37:53.833 : en:Chapter 11
01:52:15.458 : en:Chapter 12

ЦитатаКто-то писал:
В озвучке этого фильма приняли участие: mike7025, porvaliparus, Олег Воротилин



   Похожие торренты   Торрент   Размер 
В этой теме нет новых непрочитанных сообщений. Последняя запись / The Last Note (2017) BDRip от MegaPeer | L1

46 | 2

1.46 ГБ

В этой теме нет новых непрочитанных сообщений. Последняя запись / The Last Note (Пантелис Вулгарис ) [2017, драма, HDRip] MVO / Драмы

12 | 0

1.37 ГБ

В этой теме нет новых непрочитанных сообщений. Последняя запись 2 / Ragini MMS 2 (2014) WEB-DLRip | L2

547 | 72

1.97 ГБ

В этой теме нет новых непрочитанных сообщений. Последняя запись 2 / Ragini MMS 2 (2014) WEB-DL 720p | L2

165 | 30

3 ГБ

В этой теме нет новых непрочитанных сообщений. Последняя запись 2 / Ragini MMS 2 (2014) HDRip-AVC | iPad | L2

58 | 19

2.3 ГБ

В этой теме нет новых непрочитанных сообщений. Последняя запись 2 / Ragini MMS 2 (2014) WEB-DLRip от ImperiaFilm | КПК | L2

53 | 17

408.01 МБ

В этой теме нет новых непрочитанных сообщений. Погром / Mayhem (2017) BDRemux 1080р | L

56 | 6

15.34 ГБ




Вы не можете начинать темы
Вы не можете отвечать на сообщения
Вы не можете редактировать свои сообщения
Вы не можете удалять свои сообщения
Вы не можете добавлять вложения

Перейти:  
 Вход
ppkBB3cker v.2 © 2008-2014 @ PPK
[ Time : 0.485s | 17 Queries | GZIP : Off ]

cron