img image001 image001 image001 image001 image001 image001 image001 image001 image001 image001 image001 image001 image001 image001 image001 image001

Planets Sun Sun Sun
Статистика раздачи
Автор: Снежана | Размер: 5.48 ГБ | Добавлен: 25 июн 2018
Раздают: 370    Качают: 14
Скачать торрент
Скачать торрент
Описание торрента

СообщениеДобавлено: 25 июн 2018 




Анонсы 1080p от qqss44



Информация о фильме
Название: Невидимый гость
Оригинальное название: Contratiempo
Год выпуска: 2016
Жанр: Триллер
Режиссер: Ориол Паоло
В ролях: Марио Касас, Хосе Коронадо, Барбара Ленни, Ана Вахенер, Франсеск Орелья, Кристиан Валенсиа, Пако Тоус, Бетси Тунес, Давид Сельвас
О фильме:
Молодой бизнесмен Эдриан Дориа просыпается в закрытом изнутри номере отеля рядом с бездыханным телом своей любовницы. Его обвиняют в убийстве, но он, не считая себя виновным, решает воспользоваться услугами Вирджинии Гудман, лучшего в стране специалиста по выходу из самых сложных ситуаций. В течение одной ночи консультант и её клиент будут работать, чтобы найти разумное опровержение обвинению, и, тем самым, высвободить его из тюрьмы.

Страна: Испания
Студия: Atresmedia, Atresmedia Cine, Colosé Producciones, Movistar+
Продолжительность: 01:46:12
Перевод: Дублированный | iTunes
Файл
Формат: MKV, BDRip 1080p
Видео: MPEG-4 AVC, 7000 Кбит/с, 1920x802
Aудио#1: [RUS] AC3 | 48 KHz | 5.1 (Front: L С R Side: L R) + LFE | ~384 kbps
Релиз от:


Общее
Уникальный идентификатор : 181668675601588394039449681959514117778 (0x88AC1D3E2A7B29459EAAF51C69399692)
Полное имя : H:Contratiempo.(2016).BDRip-1080p.MegaPeer.(qqss44).mkv
Формат : Matroska
Версия формата : Version 2
Размер файла : 5,48 Гбайт
Продолжительность : 1 ч. 46 м.
Общий поток : 7381 Кбит/сек
Название фильма : Contratiempo.(2016).BDRip-1080p.MegaPeer.(qqss44)
Дата кодирования : UTC 2018-06-24 20:44:05
Программа кодирования : mkvmerge v5.8.0 ('No Sleep / Pillow') built on Sep 2 2012 15:37:04
Библиотека кодирования : libebml v1.2.3 + libmatroska v1.3.0
Видео
Идентификатор : 1
Формат : AVC
Формат/Информация : Advanced Video Codec
Профиль формата : High@L4.1
Параметр CABAC формата : Да
Параметр ReFrames формата : 5 кадров
Идентификатор кодека : V_MPEG4/ISO/AVC
Продолжительность : 1 ч. 46 м.
Битрейт : 7000 Кбит/сек
Ширина : 1920 пикселей
Высота : 802 пикселя
Соотношение сторон : 2,40:1
Режим частоты кадров : Постоянный
Частота кадров : 24,000 кадра/сек
Цветовое пространство : YUV
Субдискретизация насыщенности : 4:2:0
Битовая глубина : 8 бит
Тип развёртки : Прогрессивная
Бит/(Пиксели*Кадры) : 0.189
Размер потока : 5,08 Гбайт (93%)
Библиотека кодирования : x264 core 152 r2851 ba24899
Настройки программы : cabac=1 / ref=5 / deblock=1:-3:-3 / analyse=0x3:0x113 / me=umh / subme=11 / psy=1 / psy_rd=1.00:0.00 / mixed_ref=1 / me_range=32 / chroma_me=1 / trellis=2 / 8x8dct=1 / cqm=0 / deadzone=21,11 / fast_pskip=0 / chroma_qp_offset=-2 / threads=12 / lookahead_threads=2 / sliced_threads=0 / nr=0 / decimate=0 / interlaced=0 / bluray_compat=0 / constrained_intra=0 / bframes=9 / b_pyramid=2 / b_adapt=2 / b_bias=0 / direct=3 / weightb=1 / open_gop=0 / weightp=2 / keyint=250 / keyint_min=23 / scenecut=40 / intra_refresh=0 / rc_lookahead=40 / rc=2pass / mbtree=0 / bitrate=7000 / ratetol=1.0 / qcomp=0.60 / qpmin=0 / qpmax=69 / qpstep=4 / cplxblur=20.0 / qblur=0.5 / vbv_maxrate=50000 / vbv_bufsize=62500 / nal_hrd=none / filler=0 / ip_ratio=1.40 / pb_ratio=1.30 / aq=3:0.70
Язык : English
Default : Да
Forced : Нет
Аудио
Идентификатор : 2
Формат : AC-3
Формат/Информация : Audio Coding 3
Расширение режима : CM (complete main)
Параметр Endianness формата : Big
Идентификатор кодека : A_AC3
Продолжительность : 1 ч. 46 м.
Вид битрейта : Постоянный
Битрейт : 384 Кбит/сек
Каналы : 6 каналов
Расположение каналов : Front: L C R, Side: L R, LFE
Частота : 48,0 КГц
Частота кадров : 31,250 кадров/сек (1536 spf)
Метод сжатия : С потерями
Размер потока : 292 Мбайт (5%)
Язык : Russian
Default : Да
Forced : Нет
Меню
00:00:00.000 : en:Chapter 1
00:09:32.000 : en:Chapter 2
00:14:36.625 : en:Chapter 3
00:23:51.208 : en:Chapter 4
00:32:06.333 : en:Chapter 5
00:42:02.916 : en:Chapter 6
00:51:01.958 : en:Chapter 7
01:00:13.375 : en:Chapter 8
01:04:59.041 : en:Chapter 9
01:13:25.000 : en:Chapter 10
01:24:22.708 : en:Chapter 11
01:32:07.500 : en:Chapter 12



   Похожие торренты   Торрент   Размер 
В этой теме нет новых непрочитанных сообщений. Невидимый гость / Contratiempo (2016) BDRip от MegaPeer | iTunes

362 | 24

1.41 ГБ

В этой теме нет новых непрочитанных сообщений. Невидимый гость / Contratiempo (2016) BDRip от MegaPeer | iTunes

71 | 12

747.36 МБ

В этой теме нет новых непрочитанных сообщений. Невидимый гость / Contratiempo (2016) BDRip 1080p от ExKinoRay | D, P | iTunes

397 | 27

14.23 ГБ

В этой теме нет новых непрочитанных сообщений. Невидимый гость / Contratiempo (2016) BDRip 1080p от ExKinoRay | iTunes

186 | 18

19.18 ГБ

В этой теме нет новых непрочитанных сообщений. Невидимый гость / Contratiempo (2016) BDRip от MegaPeer | L1

372 | 15

1.46 ГБ

В этой теме нет новых непрочитанных сообщений. Невидимый гость / Contratiempo (2016) BDRip от MegaPeer | L1

82 | 4

747.54 МБ

В этой теме нет новых непрочитанных сообщений. Невидимый гость / Contratiempo (2016) BDRip 720p от k.e.n & MegaPeer | D, P, L1

69 | 0

4.65 ГБ




Вы не можете начинать темы
Вы не можете отвечать на сообщения
Вы не можете редактировать свои сообщения
Вы не можете удалять свои сообщения
Вы не можете добавлять вложения

Перейти:  
 Вход
ppkBB3cker v.2 © 2008-2014 @ PPK
[ Time : 0.030s | 17 Queries | GZIP : Off ]

cron