img image001 image001 image001 image001 image001 image001 image001 image001 image001 image001 image001 image001 image001 image001 image001 image001

Planets Sun Sun Sun
Статистика раздачи
Автор: Снежана | Размер: 4.16 ГБ | Добавлен: 25 июн 2018
Раздают: 14    Качают: 1
Скачать торрент
Скачать торрент
Описание торрента

СообщениеДобавлено: 25 июн 2018 

Информация о фильме
Год выхода: 2016
Наименование: Цвет кофе с молоком
Оригинальное наименование: Moka
Cтрана: Швейцария, Франция
Жанр: драма
Режиссер постановщик: Фридерик Мерму
В главных ролях: Эммануэль Дево, Натали Бай, Дэвид Клевел, Диана Руксель, Оливье Шантро, Самюэль Лабарт, Жан-Филипп Экоффей, Полин Жаккуд, Сакир Уяр
О фильме: Имея при себе несколько вещей, немного денег и пистолет, Диан Крамер отправляется в Эвиан. Она одержима только одной целью: найти водителя автомобиля Мерседес цвета мокко, который сбил ее сына и скрылся с места аварии. Но путь истины оказывается более извилистым, чем кажется. Диан придется столкнуться с другой женщиной, очаровательной и таинственной.

Файл
Качество: HDRip 720p
Видео данные: MKV, 1280x536 (2.40:1), 23.976 fps, 5901 Кбит/с
Аудио данные: AC3, 2 ch, 640 Кбит/с
Перевод: Любительский многоголосый (GreenРай Studio)
Продолжительность: 01:31:02
General
Unique ID : 213249193457750338318102029469906798758 (0xA06E4CFC9EA506D0860A6D3919E288A6)
Complete name : D:ГРИНРАЙСРОЧНОMoka.2016.P.BDRip.720p.mkv
Format : Matroska
Format version : Version 4 / Version 2
File size : 4.16 GiB
Duration : 1 h 31 min
Overall bit rate : 6 543 kb/s
Encoded date : UTC 2018-06-20 04:53:25
Writing application : mkvmerge v8.3.0 ('Over the Horizon') 64bit
Writing library : libebml v1.3.1 + libmatroska v1.4.2
Video
ID : 1
Format : AVC
Format/Info : Advanced Video Codec
Format profile : High@L3.1
Format settings : CABAC / 4 Ref Frames
Format settings, CABAC : Yes
Format settings, RefFrames : 4 frames
Codec ID : V_MPEG4/ISO/AVC
Duration : 1 h 31 min
Bit rate : 5 901 kb/s
Width : 1 280 pixels
Height : 536 pixels
Display aspect ratio : 2.40:1
Frame rate mode : Constant
Frame rate : 23.976 FPS
Color space : YUV
Chroma subsampling : 4:2:0
Bit depth : 8 bits
Scan type : Progressive
Bits/(Pixel*Frame) : 0.359
Stream size : 3.75 GiB (90%)
Writing library : x264 core 146 r2538 121396c
Encoding settings : cabac=1 / ref=1 / deblock=1:0:0 / analyse=0x3:0x113 / me=hex / subme=2 / psy=1 / psy_rd=1.00:0.00 / mixed_ref=0 / me_range=16 / chroma_me=1 / trellis=0 / 8x8dct=1 / cqm=0 / deadzone=21,11 / fast_pskip=1 / chroma_qp_offset=0 / threads=18 / lookahead_threads=4 / sliced_threads=0 / nr=0 / decimate=1 / interlaced=0 / bluray_compat=0 / constrained_intra=0 / bframes=3 / b_pyramid=2 / b_adapt=1 / b_bias=0 / direct=1 / weightb=1 / open_gop=0 / weightp=1 / keyint=250 / keyint_min=23 / scenecut=40 / intra_refresh=0 / rc_lookahead=10 / rc=crf / mbtree=1 / crf=14.5 / qcomp=0.60 / qpmin=0 / qpmax=69 / qpstep=4 / ip_ratio=1.40 / aq=1:1.00
Language : English
Default : Yes
Forced : No
Audio
ID : 2
Format : AC-3
Format/Info : Audio Coding 3
Codec ID : A_AC3
Duration : 1 h 31 min
Bit rate mode : Constant
Bit rate : 640 kb/s
Channel(s) : 2 channels
Channel positions : Front: L R
Sampling rate : 48.0 kHz
Frame rate : 31.250 FPS (1536 SPF)
Bit depth : 16 bits
Compression mode : Lossy
Stream size : 417 MiB (10%)
Service kind : Complete Main
Default : Yes
Forced : No

Внимание, имеется видео и аудио реклама от спонсора показа

Релиз от:



   Похожие торренты   Торрент   Размер 
В этой теме нет новых непрочитанных сообщений. Цвет кофе с молоком / Moka (2016) HDRip | GreenРай Studio

26 | 2

1.37 ГБ

В этой теме нет новых непрочитанных сообщений. Цвет кофе с молоком / Moka (2016) HDRip 1080p | GreenРай Studio

2 | 0

8.2 ГБ

В этой теме нет новых непрочитанных сообщений. Цвет кофе с молоком / Moka (2016) WEBRip 720p | Sub

6 | 3

1.62 ГБ

В этой теме нет новых непрочитанных сообщений. Красная таблетка / The Red Pill (2016) HDRip 720p | GreenРай Studio

2 | 0

4.05 ГБ

В этой теме нет новых непрочитанных сообщений. Давай я сделаю тебя мучеником / Let Me Make You a Martyr (2016) HDRip 720p | GreenРай Studio

4 | 7

2.15 ГБ

В этой теме нет новых непрочитанных сообщений. Я люблю тебя, или Развод по-шведски / Jag älskar dig - En skilsmässokomedi (2016) HDRip 720p | GreenРай Studio

13 | 3

2.93 ГБ

В этой теме нет новых непрочитанных сообщений. Красная таблетка / The Red Pill (2016) HDRip | GreenРай Studio

6 | 1

1.37 ГБ




Вы не можете начинать темы
Вы не можете отвечать на сообщения
Вы не можете редактировать свои сообщения
Вы не можете удалять свои сообщения
Вы не можете добавлять вложения

Перейти:  
 Вход
ppkBB3cker v.2 © 2008-2014 @ PPK
[ Time : 0.035s | 15 Queries | GZIP : Off ]

cron