img image001 image001 image001 image001 image001 image001 image001 image001 image001 image001 image001 image001 image001 image001 image001

Planets Sun Sun Sun

COVID-19 - Последняя информация о коронавирусе на сайте Минздрава


Статистика раздачи
Автор: Снежана | Размер: 9.1 ГБ | Добавлен: 26 июн 2018
Раздают: 3    Качают: 1
Скачать торрент
Скачать торрент
Описание торрента

СообщениеДобавлено: 26 июн 2018 

Название: Американский оборотень в Париже
Оригинальное название: An American Werewolf in Paris
Год выхода: 1997
Страна: Великобритания, Нидерланды, Люксембург, США, Франция, Германия
Студия: Hollywood Pictures, J&M Entertainment, Cometstone Pictures
Продолжительность: 01:38:19
Жанр: ужасы, фэнтези, триллер, мелодрама, комедия
Режиссер: Энтони Уоллер
В ролях: Том Эверетт Скотт, Жюли Дельпи, Винс Вьелуф, Фил Букман, Джули Боуэн, Пьер Коссо, Тьерри Лермитт, Том Новамбр, Мария Машадо, Бен Салем Буабдаллах, ...
Перевод:
- Профессиональный (двуголосый, закадровый) Амальгама
- Профессиональный (двуголосый, закадровый) НТВ
- Профессиональный (двуголосый, закадровый) РТР
- Авторский (одноголосый, закадровый) Гаврилов Андрей Юрьевич
- Авторский (одноголосый, закадровый) Живов Юрий Викторович
- Авторский (одноголосый, закадровый) Сербин Юрий Владимирович
- Любительский (одноголосый, закадровый) ?
- Субтитры
О фильме: Энди, Крис и Брэд путешествуют по Европе в поисках приключений. Они находят их в Париже, в мрачных катакомбах которого владычествует могущественный клан оборотней. Однажды ночью Энди предотвращает самоубийство молодой француженки Серафин. Потрясенный ее красотой, Энди с друзьями отправляется на поиски прекрасной мадемуазель.
Оказывается, что Серафин — оборотень, и ее держит в плену глава клана Клод. Энди должен найти вакцину, которая поможет Серафин остаться человеком и расправиться с кланом, существование которого угрожает всему человечеству. К тому же Энди сам укушен оборотнем и уже чувствует, как в нем начинает шевелиться зверь…

Кодек: x264
Качество: BDRip 1080p
Видео: 1916x1036, 10000 kbps, 23,976 fps
Аудио #1: AC-3, 6 ch, 448 kbps (Rus) - DVO Амальгама
Аудио #2: AC-3, 2 ch, 192 kbps (Rus) - DVO НТВ
Аудио #3: AC-3, 2 ch, 192 kbps (Rus) - DVO РТР
Аудио #4: AC-3, 6 ch, 384 kbps (Rus) - AVO Гаврилов Андрей Юрьевич
Аудио #5: AC-3, 2 ch, 192 kbps (Rus) - AVO Живов Юрий Викторович
Аудио #6: AC-3, 2 ch, 192 kbps (Rus) - AVO Сербин Юрий Владимирович
Аудио #7: AC-3, 2 ch, 192 kbps (Rus) - VO
Аудио #8: DTS, 6 ch, 1509 kbps (Eng)
Субтитры: русские, английские
Спасибо за исходник
x264 [info]: frame I:1302 Avg QP:14.87 size:200545
x264 [info]: frame P:35769 Avg QP:17.01 size: 88269
x264 [info]: frame B:103793 Avg QP:18.88 size: 37809
x264 [info]: consecutive B-frames: 4.1% 4.5% 14.6% 20.4% 19.5% 34.3% 1.6% 0.2% 0.1% 0.1% 0.1% 0.2% 0.1%
Общее
Уникальный идентификатор : 173936674130257246493031861944732586774 (0x82DAFC2349D68D24A9649CFB53F79316)
Полное имя : C:TorrentАмериканский оборотень в Париже (An American Werewolf in Paris) 1997 BDRip 1080p.mkv
Формат : Matroska
Версия формата : Version 2
Размер файла : 9,10 Гбайт
Продолжительность : 1 ч. 38 м.
Общий поток : 13,3 Мбит/сек
Дата кодирования : UTC 2018-06-26 05:27:39
Программа кодирования : mkvmerge v4.0.0 ('The Stars were mine') сборка от Jun 6 2010 16:18:42
Библиотека кодирования : libebml v1.0.0 + libmatroska v1.0.0
Видео
Идентификатор : 1
Формат : AVC
Формат/Информация : Advanced Video Codec
Профиль формата : High@L4.1
Параметр CABAC формата : Да
Параметр ReFrames формата : 4 кадра
Идентификатор кодека : V_MPEG4/ISO/AVC
Продолжительность : 1 ч. 38 м.
Битрейт : 10000 Кбит/сек
Ширина : 1916 пикселей
Высота : 1036 пикселей
Соотношение сторон : 1,85:1
Режим частоты кадров : Постоянный
Частота кадров : 23,976 (24000/1001) кадра/сек
Цветовое пространство : YUV
Субдискретизация насыщенности : 4:2:0
Битовая глубина : 8 бит
Тип развёртки : Прогрессивная
Бит/(Пиксели*Кадры) : 0.210
Размер потока : 6,66 Гбайт (73%)
Библиотека кодирования : x264 core 146 r2538 121396c
Настройки программы : cabac=1 / ref=4 / deblock=1:-3:-3 / analyse=0x3:0x133 / me=umh / subme=11 / psy=1 / psy_rd=1.00:0.00 / mixed_ref=1 / me_range=32 / chroma_me=1 / trellis=2 / 8x8dct=1 / cqm=0 / deadzone=21,11 / fast_pskip=0 / chroma_qp_offset=-2 / threads=12 / lookahead_threads=2 / sliced_threads=0 / nr=0 / decimate=0 / interlaced=0 / bluray_compat=0 / constrained_intra=0 / bframes=12 / b_pyramid=2 / b_adapt=2 / b_bias=0 / direct=3 / weightb=1 / open_gop=0 / weightp=2 / keyint=240 / keyint_min=23 / scenecut=40 / intra_refresh=0 / rc=2pass / mbtree=0 / bitrate=10000 / ratetol=1.0 / qcomp=0.60 / qpmin=0 / qpmax=69 / qpstep=4 / cplxblur=20.0 / qblur=0.5 / ip_ratio=1.40 / pb_ratio=1.30 / aq=1:0.80
Язык : English
Default : Нет
Forced : Нет
Аудио #1
Идентификатор : 2
Формат : AC-3
Формат/Информация : Audio Coding 3
Расширение режима : CM (complete main)
Параметр Endianness формата : Big
Идентификатор кодека : A_AC3
Продолжительность : 1 ч. 38 м.
Вид битрейта : Постоянный
Битрейт : 448 Кбит/сек
Каналы : 6 каналов
Расположение каналов : Front: L C R, Side: L R, LFE
Частота : 48,0 КГц
Частота кадров : 31,250 кадров/сек (1536 spf)
Метод сжатия : С потерями
Размер потока : 315 Мбайт (3%)
Заголовок : DVO Амальгама
Язык : Russian
Default : Нет
Forced : Нет
Аудио #2
Идентификатор : 3
Формат : AC-3
Формат/Информация : Audio Coding 3
Расширение режима : CM (complete main)
Параметр Endianness формата : Big
Идентификатор кодека : A_AC3
Продолжительность : 1 ч. 38 м.
Вид битрейта : Постоянный
Битрейт : 192 Кбит/сек
Каналы : 2 канала
Расположение каналов : Front: L R
Частота : 48,0 КГц
Частота кадров : 31,250 кадров/сек (1536 spf)
Метод сжатия : С потерями
Размер потока : 135 Мбайт (1%)
Заголовок : DVO НТВ
Язык : Russian
Default : Нет
Forced : Нет
Аудио #3
Идентификатор : 4
Формат : AC-3
Формат/Информация : Audio Coding 3
Расширение режима : CM (complete main)
Параметр Endianness формата : Big
Идентификатор кодека : A_AC3
Продолжительность : 1 ч. 38 м.
Вид битрейта : Постоянный
Битрейт : 192 Кбит/сек
Каналы : 2 канала
Расположение каналов : Front: L R
Частота : 48,0 КГц
Частота кадров : 31,250 кадров/сек (1536 spf)
Метод сжатия : С потерями
Размер потока : 135 Мбайт (1%)
Заголовок : DVO РТР
Язык : Russian
Default : Нет
Forced : Нет
Аудио #4
Идентификатор : 5
Формат : AC-3
Формат/Информация : Audio Coding 3
Расширение режима : CM (complete main)
Параметр Endianness формата : Big
Идентификатор кодека : A_AC3
Продолжительность : 1 ч. 38 м.
Вид битрейта : Постоянный
Битрейт : 384 Кбит/сек
Каналы : 6 каналов
Расположение каналов : Front: L C R, Side: L R, LFE
Частота : 48,0 КГц
Частота кадров : 31,250 кадров/сек (1536 spf)
Метод сжатия : С потерями
Размер потока : 270 Мбайт (3%)
Заголовок : AVO Гаврилов Андрей Юрьевич
Язык : Russian
Default : Нет
Forced : Нет
Аудио #5
Идентификатор : 6
Формат : AC-3
Формат/Информация : Audio Coding 3
Расширение режима : CM (complete main)
Параметр Endianness формата : Big
Идентификатор кодека : A_AC3
Продолжительность : 1 ч. 38 м.
Вид битрейта : Постоянный
Битрейт : 192 Кбит/сек
Каналы : 2 канала
Расположение каналов : Front: L R
Частота : 48,0 КГц
Частота кадров : 31,250 кадров/сек (1536 spf)
Метод сжатия : С потерями
Размер потока : 135 Мбайт (1%)
Заголовок : AVO Живов Юрий Викторович
Язык : Russian
Default : Нет
Forced : Нет
Аудио #6
Идентификатор : 7
Формат : AC-3
Формат/Информация : Audio Coding 3
Расширение режима : CM (complete main)
Параметр Endianness формата : Big
Идентификатор кодека : A_AC3
Продолжительность : 1 ч. 38 м.
Вид битрейта : Постоянный
Битрейт : 192 Кбит/сек
Каналы : 2 канала
Расположение каналов : Front: L R
Частота : 48,0 КГц
Частота кадров : 31,250 кадров/сек (1536 spf)
Метод сжатия : С потерями
Размер потока : 135 Мбайт (1%)
Заголовок : AVO Сербин Юрий Владимирович
Язык : Russian
Default : Нет
Forced : Нет
Аудио #7
Идентификатор : 8
Формат : AC-3
Формат/Информация : Audio Coding 3
Расширение режима : CM (complete main)
Параметр Endianness формата : Big
Идентификатор кодека : A_AC3
Продолжительность : 1 ч. 38 м.
Вид битрейта : Постоянный
Битрейт : 192 Кбит/сек
Каналы : 2 канала
Расположение каналов : Front: L R
Частота : 48,0 КГц
Частота кадров : 31,250 кадров/сек (1536 spf)
Метод сжатия : С потерями
Размер потока : 135 Мбайт (1%)
Заголовок : VO
Язык : Russian
Default : Нет
Forced : Нет
Аудио #8
Идентификатор : 9
Формат : DTS
Формат/Информация : Digital Theater Systems
Режим : 16
Параметр Endianness формата : Big
Идентификатор кодека : A_DTS
Продолжительность : 1 ч. 38 м.
Вид битрейта : Постоянный
Битрейт : 1509 Кбит/сек
Каналы : 6 каналов
Расположение каналов : Front: L C R, Side: L R, LFE
Частота : 48,0 КГц
Частота кадров : 93,750 кадра/сек (512 spf)
Битовая глубина : 16 бит
Метод сжатия : С потерями
Размер потока : 1,04 Гбайт (11%)
Язык : English
Default : Нет
Forced : Нет
Текст #1
Идентификатор : 10
Формат : UTF-8
Идентификатор кодека : S_TEXT/UTF8
Идентификатор кодека/Информация : UTF-8 Plain Text
Язык : Russian
Default : Нет
Forced : Нет
Текст #2
Идентификатор : 11
Формат : UTF-8
Идентификатор кодека : S_TEXT/UTF8
Идентификатор кодека/Информация : UTF-8 Plain Text
Язык : English
Default : Нет
Forced : Нет
Меню
00:00:00.000 : en:00:00:00.000
00:03:21.660 : en:00:03:21.660
00:11:38.698 : en:00:11:38.698
00:17:48.818 : en:00:17:48.818
00:23:48.260 : en:00:23:48.260
00:28:54.942 : en:00:28:54.942
00:37:59.110 : en:00:37:59.110
00:44:37.383 : en:00:44:37.383
00:52:25.017 : en:00:52:25.017
01:01:09.916 : en:01:01:09.916
01:10:02.365 : en:01:10:02.365
01:14:59.286 : en:01:14:59.286
01:18:41.759 : en:01:18:41.759
01:23:43.894 : en:01:23:43.894
01:31:09.005 : en:01:31:09.005
01:32:41.556 : en:01:32:41.556



   Похожие торренты   Торрент   Размер 
В этой теме нет новых непрочитанных сообщений. Американский оборотень в Париже / An American Werewolf in Paris (1997) BDRemux 1080p | P2, A, L1

3 | 1

19.98 ГБ

В этой теме нет новых непрочитанных сообщений. Американский оборотень в Париже / An American Werewolf in Paris (1997) BDRip 720p от k.e.n & MegaPeer | P2, A, L1

0 | 3

5.76 ГБ

В этой теме нет новых непрочитанных сообщений. Американский оборотень в Париже / An American werewolf in Paris (1997) DVDRip-AVC от ImperiaFilm | A

8 | 1

744.16 МБ

В этой теме нет новых непрочитанных сообщений. Американский оборотень в Лондоне / An American Werewolf In London (1981) BDRip 1080p | P, A | Восстановленное издание

0 | 0

10.74 ГБ

В этой теме нет новых непрочитанных сообщений. Американский оборотень в Лондоне / An American Werewolf In London (1981) BDRip 720p от k.e.n & MegaPeer | Restored Edition

5 | 0

5.76 ГБ

В этой теме нет новых непрочитанных сообщений. Американский оборотень в Лондоне / An American Werewolf in London (Джон Лэндис) [1981, ужасы, фэнтези, комедия, BDRip] MVO

0 | 2

1.45 ГБ

В этой теме нет новых непрочитанных сообщений. Американский оборотень в Лондоне / An American Werewolf in London (1981) HDRip от Scarabey | P

9 | 5

1.45 ГБ




Вы не можете начинать темы
Вы не можете отвечать на сообщения
Вы не можете редактировать свои сообщения
Вы не можете удалять свои сообщения
Вы не можете добавлять вложения

Перейти:  
Контактная информация: rstracker[пёсик]yandex.ru
 Вход
ppkBB3cker v.2 © 2008-2014 @ PPK
[ Time : 0.025s | 19 Queries | GZIP : Off ]

cron