img image001 image001 image001 image001 image001 image001 image001 image001 image001 image001 image001 image001 image001 image001 image001 image001

Planets Sun Sun Sun
Статистика раздачи
Автор: Снежана | Размер: 9.74 ГБ | Добавлен: 26 июн 2018
Раздают: 7    Качают: 0
Скачать торрент
Скачать торрент
Описание торрента

СообщениеДобавлено: 26 июн 2018 

Название: Погоня за Бенджи / Бенджи потерялся / Бенджи-охотник
Оригинальное название: Benji the Hunted
Год выпуска: 1987
Выпущено: США, Embark Production, Millenium Productions, Mulberry Square Productions, Silver Screen Partners III, Walt Disney Pictures3
Жанр: Приключения, семейный
Режиссер: Джо Кэмп
В ролях: Бенджи, Фрэнк Инн, Джо Кэмп, Майк Фрэнсис, Нэнси Френсис, Ред Стигал, Стив Занолни, Бен Вон, Карен Торндайк, Гай Ховис, Малина
О фильме: Симпатяга-пес Бенджи потерялся. И не где-нибудь, а в лесу. Можно представить, какие приключения ждут там дворнягу. Псу, например, приходится стать "мамой": остаться равнодушным к маленьким котятам пумы, оставшимся без матери, он не смог. В то время, как Бенджи - новоявленная "мамаша" - пытается найти малышам еды, на него самого охотится кровожадный волк...
Продолжительность: 01:29:15
Перевод: Дублированный, профессиональный многоголосый
Субтитры: Английские
Навигация по главам: Есть
Файл
Качество: WEB-DL 1080p
Видео: MPEG-4 AVC, 13,9 Мбит/сек, 1920x1040, 23,976 кадра/сек
Аудио #1: AC3, 2 ch, 192 Кбит/сек | Русский, профессиональный (полное дублирование) СВ-Дубль, DVD
Аудио #2: AC3, 2 ch, 192 Кбит/сек | Русский, профессиональный (многоголосый закадровый)
Аудио #3: AC3, 6 ch, 384 Кбит/сек | Английский, оригинал, DVD
Аудио #4: EAC3, 2 ch, 224 Кбит/сек | Английский, оригинал, WEB
Аудио #5: AC3, 6 ch, 384 Кбит/сек | Немецкий, профессиональный (полное дублирование)


Общее
Уникальный идентификатор : 175707361684180329302096635370949304240 (0x843001C6465CAB50B8B18E4985C3DFB0)
Полное имя : Погоня.за.Бенджи.1987.WEB-DL.1080p.mkv
Формат : Matroska
Версия формата : Version 2
Размер файла : 9,74 Гбайт
Продолжительность : 1 ч. 29 м.
Режим общего битрейта : Переменный
Общий поток : 15,6 Мбит/сек
Дата кодирования : UTC 2018-06-23 22:52:32
Программа кодирования : mkvmerge v5.8.0 ('No Sleep / Pillow') built on Sep 2 2012 15:37:04
Библиотека кодирования : libebml v1.2.3 + libmatroska v1.3.0
Видео
Идентификатор : 1
Формат : AVC
Формат/Информация : Advanced Video Codec
Профиль формата : High@L4
Настройки формата : CABAC / 4 Ref Frames
Параметр CABAC формата : Да
Параметр RefFrames формата : 4 кадра
Идентификатор кодека : V_MPEG4/ISO/AVC
Продолжительность : 1 ч. 29 м.
Вид битрейта : Переменный
Битрейт : 13,9 Мбит/сек
Максимальный битрейт : 15,0 Мбит/сек
Ширина : 1920 пикселей
Высота : 1040 пикселей
Соотношение сторон : 1,85:1
Соотношение сторон в оригинале : 1,85:1
Режим частоты кадров : Постоянный
Частота кадров : 23,976 (24000/1001) кадра/сек
Цветовое пространство : YUV
Субдискретизация насыщенности : 4:2:0
Битовая глубина : 8 бит
Тип развёртки : Прогрессивная
Бит/(Пиксели*Кадры) : 0.291
Размер потока : 8,69 Гбайт (89%)
Библиотека кодирования : x264 core 148 r2623 d5b2374
Настройки программы : cabac=1 / ref=4 / deblock=1:-1:-1 / analyse=0x3:0x133 / me=umh / subme=9 / psy=1 / psy_rd=1.00:0.15 / mixed_ref=1 / me_range=24 / chroma_me=1 / trellis=2 / 8x8dct=1 / cqm=0 / deadzone=21,11 / fast_pskip=1 / chroma_qp_offset=-3 / threads=32 / lookahead_threads=5 / sliced_threads=0 / nr=150 / decimate=1 / interlaced=0 / bluray_compat=0 / constrained_intra=0 / bframes=8 / b_pyramid=2 / b_adapt=2 / b_bias=0 / direct=3 / weightb=1 / open_gop=0 / weightp=2 / keyint=120 / keyint_min=61 / scenecut=0 / intra_refresh=0 / rc_lookahead=120 / rc=crf / mbtree=1 / crf=18.0 / qcomp=0.60 / qpmin=0 / qpmax=69 / qpstep=4 / vbv_maxrate=15000 / vbv_bufsize=31250 / crf_max=0.0 / nal_hrd=vbr / filler=0 / ip_ratio=1.40 / aq=3:1.00
Язык : English
Default : Да
Forced : Нет
Цветовой диапазон : Limited
Основные цвета : BT.709
Характеристики трансфера : BT.709
Коэффициенты матрицы : BT.709
Аудио #1
Идентификатор : 2
Формат : AC-3
Формат/Информация : Audio Coding 3
Идентификатор кодека : A_AC3
Продолжительность : 1 ч. 29 м.
Вид битрейта : Постоянный
Битрейт : 192 Кбит/сек
Каналы : 2 канала
Расположение каналов : Front: L R
Частота : 48,0 КГц
Частота кадров : 31,250 кадров/сек (1536 SPF)
Битовая глубина : 16 бит
Метод сжатия : С потерями
Размер потока : 123 Мбайт (1%)
Заголовок : DUB | СВ-Дубль
Язык : Russian
По умолчанию : Да
Принудительно : Нет
Аудио #2
Идентификатор : 3
Формат : AC-3
Формат/Информация : Audio Coding 3
Идентификатор кодека : A_AC3
Продолжительность : 1 ч. 29 м.
Вид битрейта : Постоянный
Битрейт : 192 Кбит/сек
Каналы : 2 канала
Расположение каналов : Front: L R
Частота : 48,0 КГц
Частота кадров : 31,250 кадров/сек (1536 SPF)
Битовая глубина : 16 бит
Метод сжатия : С потерями
Размер потока : 123 Мбайт (1%)
Заголовок : MVO
Язык : Russian
По умолчанию : Нет
Принудительно : Нет
Аудио #3
Идентификатор : 4
Формат : AC-3
Формат/Информация : Audio Coding 3
Идентификатор кодека : A_AC3
Продолжительность : 1 ч. 29 м.
Вид битрейта : Постоянный
Битрейт : 384 Кбит/сек
Каналы : 6 каналов
Расположение каналов : Front: L C R, Side: L R, LFE
Частота : 48,0 КГц
Частота кадров : 31,250 кадров/сек (1536 SPF)
Битовая глубина : 16 бит
Метод сжатия : С потерями
Размер потока : 245 Мбайт (2%)
Заголовок : Original | 5.1
Язык : English
По умолчанию : Нет
Принудительно : Нет
Аудио #4
Идентификатор : 5
Формат : E-AC-3
Формат/Информация : Enhanced Audio Coding 3
Идентификатор кодека : A_EAC3
Продолжительность : 1 ч. 29 м.
Вид битрейта : Постоянный
Битрейт : 224 Кбит/сек
Каналы : 2 канала
Расположение каналов : Front: L R
Частота : 48,0 КГц
Частота кадров : 187,500 кадров/сек (256 SPF)
Метод сжатия : С потерями
Размер потока : 143 Мбайт (1%)
Заголовок : Original | 2.0
Язык : English
По умолчанию : Нет
Принудительно : Нет
Аудио #5
Идентификатор : 6
Формат : AC-3
Формат/Информация : Audio Coding 3
Идентификатор кодека : A_AC3
Продолжительность : 1 ч. 29 м.
Вид битрейта : Постоянный
Битрейт : 384 Кбит/сек
Каналы : 6 каналов
Расположение каналов : Front: L C R, Side: L R, LFE
Частота : 48,0 КГц
Частота кадров : 31,250 кадров/сек (1536 SPF)
Битовая глубина : 16 бит
Метод сжатия : С потерями
Размер потока : 245 Мбайт (2%)
Заголовок : DUB
Язык : German
По умолчанию : Нет
Принудительно : Нет
Текст
Идентификатор : 7
Формат : UTF-8
Идентификатор кодека : S_TEXT/UTF8
Идентификатор кодека/Информация : UTF-8 Plain Text
Язык : English
По умолчанию : Нет
Принудительно : Нет
Меню
00:00:00.000 : en:1. Opening Titles
00:07:54.205 : en:2. Lost
00:17:22.064 : en:3. Stealing Dinner
00:23:45.197 : en:4. Captured
00:33:27.153 : en:5. Cougar Trouble
00:39:29.307 : en:6. Benji's Kittens
00:47:34.500 : en:7. The Curious Bear
00:56:30.994 : en:8. Search Party
01:01:59.364 : en:9. Rascals
01:08:36.844 : en:10. On the Trail
01:15:53.739 : en:11. Uphill Battle
01:26:24.870 : en:12. End Credits

• Исходник видео WEB-DL Amazon.

Сборка:



   Похожие торренты   Торрент   Размер 
В этой теме нет новых непрочитанных сообщений. Погоня за Бенджи / Benji the Hunted (1987) WEB-DLRip 720p от KORSAR | D, P

1 | 0

6.98 ГБ

В этой теме нет новых непрочитанных сообщений. Погоня за Бенджи / Benji the Hunted (1987) WEB-DL 720p от HDClub | D

21 | 2

2.85 ГБ

В этой теме нет новых непрочитанных сообщений. Бенджи / Bendji (Брэндон Кэмп) [2018, семейный, WEB-DLRip 1080p] MVO

2 | 0

1.82 ГБ

В этой теме нет новых непрочитанных сообщений. Выбор (1987) DVDRip-AVC от KORSAR

1 | 0

2.68 ГБ

В этой теме нет новых непрочитанных сообщений. Друг (1987) DVDRip-AVC от KORSAR

26 | 2

1.53 ГБ

В этой теме нет новых непрочитанных сообщений. Зеркало для героя (1987) DVDRip-AVC от KORSAR

84 | 8

2.39 ГБ

В этой теме нет новых непрочитанных сообщений. Роксана / Roxanne (1987) BDRip 720p от KORSAR | P, P2, A

0 | 4

6.62 ГБ




Вы не можете начинать темы
Вы не можете отвечать на сообщения
Вы не можете редактировать свои сообщения
Вы не можете удалять свои сообщения
Вы не можете добавлять вложения

Перейти:  
 Вход
ppkBB3cker v.2 © 2008-2014 @ PPK
[ Time : 0.026s | 16 Queries | GZIP : Off ]

cron