img image001 image001 image001 image001 image001 image001 image001 image001 image001 image001 image001 image001 image001 image001 image001

Planets Sun Sun Sun

COVID-19 - Последняя информация о коронавирусе на сайте Минздрава


Статистика раздачи
Автор: Снежана | Размер: 1.6 ГБ | Добавлен: 03 июл 2018
Раздают: 14    Качают: 4
Скачать торрент
Скачать торрент
Описание торрента

СообщениеДобавлено: 03 июл 2018 

Информация о фильме
Название: Удушье
Оригинальное название: Sun Choke
Год выхода: 2015
Жанр: Триллер, драма, детектив
Режиссер: Бен Крешимэн
В ролях: Кристина Эмбер, Джим Бёвен, Барбара Крэмптон, Мэри Чех, Сара Хэйгэн, Ивэн Джонс, Сара Малакул Лэйн, Райли Литман, Диана Нгуйен
О фильме:
Джени, молодая девушка, которая имеет психические отклонения. Ее няня присматривает за ней по просьбе отца. Когда Джени идет на поправку,няня выпускает ее на улицу, где у ней появляется одержимость молодой девушкой Саванной, с которой чувствует необъяснимую, но глубокую связь. Няня понимает, что слишком рано выпустила Джени на улицу и пытается снова ограничить ее свободу. Но навязчивая идея Саванной становится все более агрессивной и затягивает всех трех женщин в страшный водоворот событий. Сможет ли Джени отойти от пропасти безумия? Или сорвется вниз, забрав стоящих рядом с собой?

Страна: США
Продолжительность: 01:24:44
Перевод: Любительский (одноголосый) Хихикающий доктор
Файл
Формат: MKV
Качество: WEB-DL 1080p
Видео: MPEG-4 AVC, 2500 Кбит/с, 1920x808
Аудио: 44.100 kHz, MPEG Layer 3, 2 ch, ~192.00 kbps avg rus
Трейлер
Небольшая реклама в титрах

Unique ID : 191412851032515943817944231737273588372 (0x9000C62EFBADF968B78C215E0E5B9A94)
Complete name : C:Sun.Choke.Xixidok.mkv
Format : Matroska
Format version : Version 4 / Version 2
File size : 1.60 GiB
Duration : 1 h 24 min
Overall bit rate : 2 690 kb/s
Encoded date : UTC 2018-07-03 08:51:55
Writing application : mkvmerge v8.3.0 ('Over the Horizon') 64bit
Writing library : libebml v1.3.1 + libmatroska v1.4.2
Video
ID : 1
Format : AVC
Format/Info : Advanced Video Codec
Format profile : High@L4.1
Format settings : CABAC / 4 Ref Frames
Format settings, CABAC : Yes
Format settings, RefFrames : 4 frames
Codec ID : V_MPEG4/ISO/AVC
Duration : 1 h 24 min
Bit rate : 2 500 kb/s
Width : 1 920 pixels
Height : 808 pixels
Display aspect ratio : 2.40:1
Frame rate mode : Constant
Frame rate : 23.976 (23976/1000) FPS
Color space : YUV
Chroma subsampling : 4:2:0
Bit depth : 8 bits
Scan type : Progressive
Bits/(Pixel*Frame) : 0.067
Stream size : 1.48 GiB (93%)
Writing library : x264 core 152 r2851M ba24899
Encoding settings : cabac=1 / ref=4 / deblock=1:-1:-1 / analyse=0x3:0x113 / me=umh / subme=9 / psy=1 / psy_rd=1.00:0.15 / mixed_ref=1 / me_range=24 / chroma_me=1 / trellis=2 / 8x8dct=1 / cqm=0 / deadzone=21,11 / fast_pskip=1 / chroma_qp_offset=-3 / threads=32 / lookahead_threads=4 / sliced_threads=0 / nr=0 / decimate=1 / interlaced=0 / bluray_compat=0 / constrained_intra=0 / bframes=3 / b_pyramid=2 / b_adapt=2 / b_bias=0 / direct=3 / weightb=1 / open_gop=0 / weightp=2 / keyint=250 / keyint_min=25 / scenecut=40 / intra_refresh=0 / rc_lookahead=50 / rc=2pass / mbtree=1 / bitrate=2500 / ratetol=1.0 / qcomp=0.60 / qpmin=0 / qpmax=69 / qpstep=4 / cplxblur=20.0 / qblur=0.5 / vbv_maxrate=31250 / vbv_bufsize=31250 / nal_hrd=none / filler=0 / ip_ratio=1.40 / aq=3:1.00
Default : Yes
Forced : No
Audio
ID : 2
Format : MPEG Audio
Format version : Version 1
Format profile : Layer 3
Codec ID : A_MPEG/L3
Codec ID/Hint : MP3
Duration : 1 h 24 min
Bit rate mode : Constant
Bit rate : 192 kb/s
Channel(s) : 2 channels
Sampling rate : 44.1 kHz
Frame rate : 38.281 FPS (1152 SPF)
Compression mode : Lossy
Stream size : 117 MiB (7%)
Default : Yes
Forced : No

   Похожие торренты   Торрент   Размер 
В этой теме нет новых непрочитанных сообщений. Удушье / Sun Choke (2015) WEB-DLRip | L

8 | 0

1.35 ГБ

В этой теме нет новых непрочитанных сообщений. В лучах солнца / Under the Sun (2015) WEB-DL 1080p | P1

9 | 0

3.32 ГБ

В этой теме нет новых непрочитанных сообщений. В лучах солнца / Under the Sun (2015) WEB-DL 1080p | L1

43 | 5

4.74 ГБ

В этой теме нет новых непрочитанных сообщений. В лучах солнца / Under the Sun (2015) WEB-DL 1080p от Ash61 | L1

0 | 0

4.29 ГБ

В этой теме нет новых непрочитанных сообщений. Sun Red Sun - Sun Red Sun [Remastered] (1995 / 2005) FLAC

0 | 0

380.62 МБ

В этой теме нет новых непрочитанных сообщений. Sun Red Sun - Sun Red Sun [Remastered] (1995 / 2005) MP3

0 | 0

84.69 МБ

В этой теме нет новых непрочитанных сообщений. Deep Purple - From the Setting Sun ... in Wacken 2013 (2015) BDRemux 1080p

90 | 3

14.7 ГБ




Вы не можете начинать темы
Вы не можете отвечать на сообщения
Вы не можете редактировать свои сообщения
Вы не можете удалять свои сообщения
Вы не можете добавлять вложения

Перейти:  
Контактная информация: rstracker[пёсик]yandex.ru
 Вход
ppkBB3cker v.2 © 2008-2014 @ PPK
[ Time : 0.026s | 16 Queries | GZIP : Off ]

cron