img image001 image001 image001 image001 image001 image001 image001 image001 image001 image001 image001 image001 image001 image001 image001 image001

Planets Sun Sun Sun
Статистика раздачи
Автор: Снежана | Размер: 1.46 ГБ | Добавлен: 22 июл 2013
Раздают: 8    Качают: 3
Скачать торрент
Скачать торрент
Описание торрента

СообщениеДобавлено: 22 июл 2013 

#77
Страна: США
Жанр: боевик, триллер, драма, приключения
Год выпуска: 2005
Продолжительность: 2:54:09 (01:28:04 + 01:26:05)

Перевод: Профессиональный (двухголосый закадровый)
Cубтитры: нет
Оригинальная аудиодорожка: нет

Режиссеры: Джон Путч / John Putch

В ролях: Адам Болдуин, Рутгер Хауэр, Стив Гуттенберг, Брайан Браун, Си Томас Хауэлл, Питер Уэллер, Алекс Кингстон, Алекса Хэмилтон, Клайв Мэнтл, Сильвия Симс, Эмбер Сейнсбери, Рори Копус, Тайнери Ван Вик, Питер Батлер, Эндрю Брэнт, Натали Болтт, Рассел Савадьер, Фаруг Велли Омар, Дэйл Абрахамс, Мэтт Риппи, Ив Шапира, Кэти Феррингер, Дамисани Мбебе, Шейн Мэйн, Эдриан Гелли...

Описание: Добро пожаловать на борт «Посейдона» — настоящего плавучего города. Среди его двух с половиной тысяч пассажиров находится Майк Рого, тайный агент американского министерства безопасности. А среди команды, насчитывающей более тысячи человек, спрятался террорист Касим, намеревающийся потрясти мир новым ужасным терактом.
Узнав об опасности, капитан «Посейдона» на полном ходу направляет лайнер к ближайшему порту. Но катастрофу уже не предотвратить. Через несколько минут после наступления нового года на борту корабля раздается взрыв. Многотонный монстр медленно погружается в черные океанские глубины. Пока оставшиеся в живых отчаянно борются за жизнь и пробиваются наверх… к днищу «Посейдона», Рого и Касим ведут между собой борьбу…





Исходник: DVD9 R5
Тип релиза: DVDRip
Контейнер: AVI

Видео: 656x368 (16:9), 23,976 fps, XviD ~ 1061 kbps avg, 0.183 bit/pixel
Аудио: 48 kHz, MP3, 2 ch, 128.00 kbps

Раздача от:
Общее
Полное имя : Prikljuchenie.Posejdona.2005.DVDRip.1,45.avi
Формат : AVI
Формат/Информация : Audio Video Interleave
Размер файла : 755 Мбайт
Продолжительность : 1 ч. 28 м.
Общий поток : 1198 Кбит/сек
Программа кодирования : VirtualDubMod 1.5.10.3 | www.virtualdub-fr.org || (build 2550/release)
Библиотека кодирования : VirtualDubMod build 2550/release

Видео
Идентификатор : 0
Формат : MPEG-4 Visual
Профиль формата : Advanced Simple@L5
Параметр BVOP формата : 1
Параметр QPel формата : Нет
Параметр GMC формата : Без точки перехода
Параметр матрицы формата : Выборочная
Идентификатор кодека : XVID
Идентификатор кодека/Подсказка : XviD
Продолжительность : 1 ч. 28 м.
Битрейт : 1061 Кбит/сек
Ширина : 656 пикселей
Высота : 368 пикселей
Соотношение сторон : 16:9
Частота кадров : 23,976 кадра/сек
Цветовое пространство : YUV
Субдискретизация насыщенности : 4:2:0
Битовая глубина : 8 бит
Тип развёртки : Прогрессивная
Метод сжатия : С потерями
Бит/(Пиксели*Кадры) : 0.183
Размер потока : 668 Мбайт (89%)
Библиотека кодирования : XviD 65

Аудио
Идентификатор : 1
Формат : MPEG Audio
Версия формата : Version 1
Профиль формата : Layer 3
Идентификатор кодека : 55
Идентификатор кодека/Подсказка : MP3
Продолжительность : 1 ч. 28 м.
Вид битрейта : Постоянный
Битрейт : 128 Кбит/сек
Каналы : 2 канала
Частота : 48,0 КГц
Метод сжатия : С потерями
Размер потока : 80,6 Мбайт (11%)
Выравнивание : Соединение по промежуткам
Продолжительность промежутка : 42 мс. (1,00 видеокадр)
Время предзагрузки промежутка : 504 мс.
Библиотека кодирования : L3.99r
Настройки программы : -m s -V 4 -q 2 -lowpass 17 -b 128





   Похожие торренты   Торрент   Размер 
В этой теме нет новых непрочитанных сообщений. Приключения Посейдона / The Poseidon Adventure (2005) DVDRip от Youtracker | P2

3 | 1

2.19 ГБ

В этой теме нет новых непрочитанных сообщений. Приключения Посейдона / The Poseidon Adventure (2005) DVDRip-AVC от Youtracker | P2

12 | 4

2.18 ГБ

В этой теме нет новых непрочитанных сообщений. Приключения Посейдона / The Poseidon Adventure (2005) DVD9 от Youtracker | P2

1 | 2

7.35 ГБ

В этой теме нет новых непрочитанных сообщений. Приключения Посейдона / The Poseidon Adventure (2005) DVD5 от Youtracker | Сжатый | P2

0 | 3

4.37 ГБ

В этой теме нет новых непрочитанных сообщений. Приключения «Посейдона» / The Poseidon Adventure (1972) DVDRip

9 | 6

1.46 ГБ

В этой теме нет новых непрочитанных сообщений. Приключения «Посейдона» / The Poseidon Adventure (1972) HDRip

5 | 7

744.09 МБ

В этой теме нет новых непрочитанных сообщений. Приключения «Посейдона» / The Poseidon Adventure (1972) BDRip от HQCLUB

109 | 45

2.18 ГБ




Вы не можете начинать темы
Вы не можете отвечать на сообщения
Вы не можете редактировать свои сообщения
Вы не можете удалять свои сообщения
Вы не можете добавлять вложения

Перейти:  
 Вход
ppkBB3cker v.2 © 2008-2014 @ PPK
[ Time : 0.169s | 16 Queries | GZIP : Off ]

cron