img image001 image001 image001 image001 image001 image001 image001 image001 image001 image001 image001 image001 image001 image001 image001 image001

Planets Sun Sun Sun
Статистика раздачи
Автор: Снежана | Размер: 746.21 МБ | Добавлен: 10 июл 2018
Раздают: 16    Качают: 3
Скачать торрент
Скачать торрент
Описание торрента

СообщениеДобавлено: 10 июл 2018 

Служители закона / U.S. Marshals

Перевод: Профессиональный (полное дублирование)
Субтитры: Русские, английские
Формат: LowHDRip-AVC, MKV, H.264, AAC
Страна: США
Режиссер: Стюарт Бейрд
Жанр: боевик, триллер, криминал
Продолжительность: 02:11:07
Год выпуска: 1998

В ролях: Томми Ли Джонс, Уэсли Снайпс, Роберт Дауни мл., Джо Пантольяно, Дэниэл Робак, Том Вуд, ЛаТаня Ричардсон, Ирен Жакоб, Кейт Неллиган, Патрик Мэлахайд

Описание: Самолет, перевозивший заключенных, терпит аварию и совершает вынужденную посадку. Воспользовавшись ситуацией, из-под конвоя бежит особо опасный арестант — бывший секретный агент, обвиненный в убийстве двух других агентов. Но не только полиция и группа Джерарда идут по его следу; беглец представляет интерес и кое для кого еще. Он слишком много знает, и этот кое-кто желал бы его убрать…



Видео: 748x312 (16:9), 23.976 fps, AVC (H.264), ~718 kbps, 0.094 bit/pixel
Аудио: 48 kHz, AАС-HE, 2 ch, ~76 kbps

Доп. информация: По смыслу является сиквелом фильма «Беглец», в нём частично заняты те же актёры, по сюжету та же команда судебных исполнителей США занята поимкой беглеца из под стражи.
Формат : Matroska
Версия формата : Version 4 / Version 2
Размер файла : 746 Мбайт
Продолжительность : 2 ч. 11 м.
Общий поток : 796 Кбит/сек
Дата кодирования : UTC 2018-07-05 04:36:52
Программа кодирования : mkvmerge v15.0.0 ('Duel with the Devil') 64-bit
Библиотека кодирования : libebml v1.3.5 + libmatroska v1.4.5

Видео
Идентификатор : 1
Формат : AVC
Формат/Информация : Advanced Video Codec
Профиль формата :
Параметр CABAC формата : Да
Параметр RefFrames формата : 10 кадров
Идентификатор кодека : V_MPEG4/ISO/AVC
Продолжительность : 2 ч. 11 м.
Битрейт : 718 Кбит/сек
Ширина : 752 пикселя
Высота : 424 пикселя
Соотношение сторон : 16:9
Режим частоты кадров : Постоянный
Частота кадров : 23,976 (24000/1001) кадра/сек
Цветовое пространство : YUV
Субдискретизация насыщенности : 4:2:0
Битовая глубина : 8 бит
Тип развёртки : Прогрессивная
Бит/(Пиксели*Кадры) : 0.094
Размер потока : 673 Мбайт (90%)
Библиотека кодирования : x264 core 152 r2851kMod ba24899
Настройки программы : cabac=1 / ref=10 / deblock=1:-3:-3 / analyse=0x3:0x133 / me=umh / subme=11 / psy=1 / fade_compensate=0.00 / psy_rd=1.00:0.15 / mixed_ref=1 / me_range=32 / chroma_me=1 / trellis=2 / 8x8dct=1 / cqm=0 / deadzone=21,11 / fast_pskip=0 / chroma_qp_offset=-3 / threads=6 / lookahead_threads=1 / sliced_threads=0 / nr=0 / decimate=0 / interlaced=0 / bluray_compat=0 / constrained_intra=0 / bframes=10 / b_pyramid=2 / b_adapt=2 / b_bias=0 / direct=3 / weightb=1 / open_gop=0 / weightp=2 / keyint=240 / keyint_min=23 / scenecut=40 / intra_refresh=0 / rc_lookahead=40 / rc=2pass / mbtree=1 / bitrate=718 / ratetol=1.0 / qcomp=0.60 / qpmin=0 / qpmax=69 / qpstep=4 / cplxblur=20.0 / qblur=0.5 / vbv_maxrate=50000 / vbv_bufsize=62500 / nal_hrd=none / filler=0 / ip_ratio=1.40 / aq=3:1.00
Default : Да
Forced : Нет

Аудио
Идентификатор : 2
Формат : AAC
Формат/Информация : Advanced Audio Codec
Профиль формата : HE-AAC / LC
Идентификатор кодека : A_AAC
Продолжительность : 2 ч. 11 м.
Битрейт : 76,0 Кбит/сек
Каналы : 2 канала
Расположение каналов : Front: L R
Частота : 48,0 КГц / 24,0 КГц
Частота кадров : 23,438 кадра/сек (1024 SPF)
Метод сжатия : С потерями
Задержка видео : 31 мс.
Размер потока : 71,3 Мбайт (10%)
Default : Да
Forced : Нет

Текст #1
Идентификатор : 3
Формат : UTF-8
Идентификатор кодека : S_TEXT/UTF8
Идентификатор кодека/Информация : UTF-8 Plain Text
Продолжительность : 2 ч. 2 м.
Битрейт : 66 бит/сек
ElementCount : 1194
Размер потока : 59,6 Кбайт (0%)
Язык : Russian
Default : Нет
Forced : Нет

Текст #2
Идентификатор : 4
Формат : UTF-8
Идентификатор кодека : S_TEXT/UTF8
Идентификатор кодека/Информация : UTF-8 Plain Text
Продолжительность : 2 ч. 10 м.
Битрейт : 51 бит/сек
ElementCount : 1478
Размер потока : 49,3 Кбайт (0%)
Язык : English
Default : Нет
Forced : Нет

Меню
00:00:00.000 : :00:00:00.000
00:01:35.095 : :00:01:35.095
00:03:37.426 : :00:03:37.426
00:07:00.837 : :00:07:00.837
00:09:51.591 : :00:09:51.591
00:11:35.570 : :00:11:35.570
00:13:20.091 : :00:13:20.091
00:15:37.770 : :00:15:37.770
00:18:45.499 : :00:18:45.499
00:21:42.801 : :00:21:42.801
00:23:38.667 : :00:23:38.667
00:27:23.559 : :00:27:23.559
00:31:07.866 : :00:31:07.866
00:35:55.528 : :00:35:55.528
00:40:11.200 : :00:40:11.200
00:42:45.021 : :00:42:45.021
00:45:10.666 : :00:45:10.666
00:49:35.347 : :00:49:35.347
00:52:05.664 : :00:52:05.664
00:55:05.969 : :00:55:05.969
00:58:24.418 : :00:58:24.418
01:02:18.693 : :01:02:18.693
01:05:19.165 : :01:05:19.165
01:10:31.352 : :01:10:31.352
01:13:35.620 : :01:13:35.620
01:16:48.521 : :01:16:48.521
01:22:58.932 : :01:22:58.932
01:25:53.940 : :01:25:53.940
01:29:53.263 : :01:29:53.263
01:32:18.241 : :01:32:18.241
01:34:52.645 : :01:34:52.645
01:38:04.003 : :01:38:04.003
01:40:35.780 : :01:40:35.780
01:42:40.446 : :01:42:40.446
01:44:20.754 : :01:44:20.754
01:49:26.143 : :01:49:26.143
01:54:40.499 : :01:54:40.499
01:57:28.166 : :01:57:28.166
02:01:14.517 : :02:01:14.517
02:03:48.296 : :02:03:48.296












   Похожие торренты   Торрент   Размер 
В этой теме нет новых непрочитанных сообщений. Приказано уничтожить / Executive Decision (Стюарт Бейрд) [1996, боевик, триллер, приключения, BDRip] DUB / Боевики /Action

10 | 0

2.18 ГБ

В этой теме нет новых непрочитанных сообщений. Кровавый четверг / Thursday (Скип Вудс) [1998, боевик, триллер, драма, криминал, LowHDRip-AVC] DVO+MVO / Боевики /Action

2 | 0

745.82 МБ

В этой теме нет новых непрочитанных сообщений. Ограбление по-итальянски / The Italian Job (Ф. Гэри Грей) [2003, боевик, триллер, криминал, LowHDRip-AVC] DUB / Боевики /Action

2 | 0

746.44 МБ

В этой теме нет новых непрочитанных сообщений. Грешники и святые / Sinners and Saints (Уильям Кауфман) [2010, боевик, триллер, криминал, LowHDRip] MVO / Боевики /Action

0 | 2

745.45 МБ

В этой теме нет новых непрочитанных сообщений. Инoстранец / The Fоreigner (Мартин Кэмпбелл) [2017, боевик, триллер, драма, криминал, детектив, LowHDRip-AVC] DUB / Боевики /Action

11 | 0

743.8 МБ

В этой теме нет новых непрочитанных сообщений. Пес-призрак: Путь самурая / Ghost Dog: The Way of the Samurai (Джим Джармуш) [1999, боевик, триллер, драма, криминал, LowHDRip] DVO / Боевики /Action

3 | 0

745.78 МБ

В этой теме нет новых непрочитанных сообщений. Кровавый четверг / Thursday (Скип Вудс) [1998, боевик, триллер, драма, криминал, HDRip] MVO / Боевики /Action

13 | 0

1.45 ГБ




Вы не можете начинать темы
Вы не можете отвечать на сообщения
Вы не можете редактировать свои сообщения
Вы не можете удалять свои сообщения
Вы не можете добавлять вложения

Перейти:  
 Вход
ppkBB3cker v.2 © 2008-2014 @ PPK
[ Time : 0.043s | 17 Queries | GZIP : Off ]

cron