img image001 image001 image001 image001 image001 image001 image001 image001 image001 image001 image001 image001 image001 image001 image001 image001

Planets Sun Sun Sun
Статистика раздачи
Автор: Снежана | Размер: 2.18 ГБ | Добавлен: 10 июл 2018
Раздают: 30    Качают: 2
Скачать торрент
Скачать торрент
Описание торрента

СообщениеДобавлено: 10 июл 2018 

Судный день / Doomsday


Перевод: Профессиональный (полное дублирование), субтитры: отсутствуют
Формат: HDRip-AVC, MKV, H.264, AC3
Страна: Великобритания, США, ЮАР, Германия
Режиссер: Нил Маршалл
Жанр: фантастика, боевик, триллер
Продолжительность: 01:52:50
Год выпуска: 2008
В ролях: Рона Митра, Боб Хоскинс, Дэвид О’Хара, Адриан Лестер ,Рик Уорден, Шон Пертуи, Даррен Морфитт, МайАнна Бёринг, Малкольм МакДауэлл, Кэрин Петерсон

Описание: Великобритания, недалёкое будущее. Смертельный и совершенно неизученный вирус, названный «Жнецом» («Reaper Virus») обрушился на страну, убивая десятки и сотни тысяч жителей. Не имея возможности решить проблему, правительство решает изолировать очаг заразы от неинфицированной местности, построив вокруг территории буйства «Жнеца» стену. Проходит 30 лет, но вирус снова заявил о себе. Тогда было решено послать в заражённую область первоклассную команду спецназа для поисков возможных методов борьбы с вирусом. Ради выполнения цели и сохранения жизней ребятам придется пробиваться через настоящий оживший кошмар…



Видео: 1024x432 (2.40:1), 23.976 fps, AVC MPEG-4 (H.264), ~1819 kbps, 0.171 bit/pixel
Аудио #1: Русский:48 kHz, AC3 Dolby Digital, 3/2 (L,C,R,l,r) + LFE ch, ~448 kbps [Профессиональный (полное дублирование)]
Аудио #2: Английский:48 kHz, AC3 Dolby Digital, 3/2 (L,C,R,l,r) + LFE ch, ~448 kbps [Оригинал]
General
Unique ID : 249950233294963465786985375971397594302 (0xBC0AA9F4C19C0D70A3D499F24E03ECBE)
Complete name : C:\Users\Юрик\Desktop\Судный день.2008_[tfile.ru].mkv
Format : Matroska
Format version : Version 4 / Version 2
File size : 2.18 GiB
Duration : 1h 52mn
Overall bit rate : 2 770 Kbps
Encoded date : UTC 2018-07-08 19:21:02
Writing application : mkvmerge v7.4.0 ('Circles') 64bit built on Dec 12 2014 12:19:56
Writing library : libebml v1.3.0 + libmatroska v1.4.1
DURATION : 01:52:50.816000000
NUMBER_OF_FRAMES : 211588
NUMBER_OF_BYTES : 379165696
_STATISTICS_WRITING_APP : mkvmerge v7.4.0 ('Circles') 64bit built on Dec 12 2014 12:19:56
_STATISTICS_WRITING_DATE_UTC : 2018-07-08 19:21:02
_STATISTICS_TAGS : BPS DURATION NUMBER_OF_FRAMES NUMBER_OF_BYTES

Video
ID : 2
Format : AVC
Format/Info : Advanced Video Codec
Format profile :
Format settings, CABAC : Yes
Format settings, ReFrames : 2 frames
Format settings, GOP : M=1, N=12
Codec ID : V_MPEG4/ISO/AVC
Duration : 1h 52mn
Bit rate : 1 819 Kbps
Width : 1 024 pixels
Height : 432 pixels
Display aspect ratio : 2.40:1
Frame rate mode : Constant
Frame rate : 23.976 fps
Color space : YUV
Chroma subsampling : 4:2:0
Bit depth : 8 bits
Scan type : Progressive
Bits/(Pixel*Frame) : 0.171
Stream size : 1.43 GiB (66%)
Language : English
Default : Yes
Forced : No
DURATION : 01:52:55.978000000
NUMBER_OF_FRAMES : 162461
NUMBER_OF_BYTES : 1585208097
_STATISTICS_WRITING_APP : mkvmerge v7.4.0 ('Circles') 64bit built on Dec 12 2014 12:19:56
_STATISTICS_WRITING_DATE_UTC : 2018-07-08 19:21:02
_STATISTICS_TAGS : BPS DURATION NUMBER_OF_FRAMES NUMBER_OF_BYTES

Audio #1
ID : 1
Format : AC-3
Format/Info : Audio Coding 3
Mode extension : CM (complete main)
Format settings, Endianness : Big
Codec ID : A_AC3
Duration : 1h 52mn
Bit rate mode : Constant
Bit rate : 448 Kbps
Channel(s) : 6 channels
Channel positions : Front: L C R, Side: L R, LFE
Sampling rate : 48.0 KHz
Compression mode : Lossy
Stream size : 362 MiB (16%)
Title : Дублированный
Language : Russian
Default : Yes
Forced : No
DURATION : 01:52:50.752000000
NUMBER_OF_FRAMES : 211586
NUMBER_OF_BYTES : 379162112
_STATISTICS_WRITING_APP : mkvmerge v7.4.0 ('Circles') 64bit built on Dec 12 2014 12:19:56
_STATISTICS_WRITING_DATE_UTC : 2018-07-08 19:21:02
_STATISTICS_TAGS : BPS DURATION NUMBER_OF_FRAMES NUMBER_OF_BYTES

Audio #2
ID : 3
Format : AC-3
Format/Info : Audio Coding 3
Mode extension : CM (complete main)
Format settings, Endianness : Big
Codec ID : A_AC3
Duration : 1h 52mn
Bit rate mode : Constant
Bit rate : 448 Kbps
Channel(s) : 6 channels
Channel positions : Front: L C R, Side: L R, LFE
Sampling rate : 48.0 KHz
Compression mode : Lossy
Stream size : 362 MiB (16%)
Default : No
Forced : No



















   Похожие торренты   Торрент   Размер 
В этой теме нет новых непрочитанных сообщений. Судный день / Doomsday (Нил Маршалл) [2008, Фантастика, боевик, LowHDRip-AVC] DUB / Фантастика

25 | 1

741.07 МБ

В этой теме нет новых непрочитанных сообщений. Крепость / Fortress (Стюарт Гордон) [1992, Фантастика, боевик, триллер, HDRip-AVC] MVO / Фантастика

4 | 0

1.46 ГБ

В этой теме нет новых непрочитанных сообщений. Ловкость / Sleight (Джастин Диллард) [2017, фантастика, боевик, триллер, драма, HDRip] MVO / Фантастика

14 | 10

1.36 ГБ

В этой теме нет новых непрочитанных сообщений. Канун разрушений / Eve of Destruction (Данкан Гиббинс) [1990, фантастика, боевик, триллер, HDRip] MVO / Фантастика

2 | 0

1.32 ГБ

В этой теме нет новых непрочитанных сообщений. Сквозь снег / Snowpiercer (Пон Чжун Хо) [2013, Фантастика, боевик, триллер, HDRip] MVO+2AVO / Фантастика

0 | 0

2.8 ГБ

В этой теме нет новых непрочитанных сообщений. Логан / Logan (Джеймс Мэнголд ) [2017, фантастика, боевик, триллер, драма, HDRip-AVC] DUB / Фантастика

0 | 6

2.19 ГБ

В этой теме нет новых непрочитанных сообщений. Постапокалипсис / Earthtastrophe (Ник Лион / Nick Lyon ) [2016, фантастика, боевик, триллер, HDRip] MVO / Фантастика

14 | 0

1.37 ГБ




Вы не можете начинать темы
Вы не можете отвечать на сообщения
Вы не можете редактировать свои сообщения
Вы не можете удалять свои сообщения
Вы не можете добавлять вложения

Перейти:  
 Вход
ppkBB3cker v.2 © 2008-2014 @ PPK
[ Time : 0.045s | 18 Queries | GZIP : Off ]

cron