img image001 image001 image001 image001 image001 image001 image001 image001 image001 image001 image001 image001 image001 image001 image001 image001

Planets Sun Sun Sun
Статистика раздачи
Автор: Снежана | Размер: 2.18 ГБ | Добавлен: 13 июл 2018
Раздают: 312    Качают: 14
Скачать торрент
Скачать торрент
Описание торрента

СообщениеДобавлено: 13 июл 2018 

Рэмпейдж / Rampage


Перевод: Профессиональный (полное дублирование) Лицензия
Субтитры: Pусские, английские
Формат: BDRip-AVC, MKV, H.264, AC3
Страна: США
Режиссер: Брэд Пейтон
Жанр: фантастика, боевик, приключения
Продолжительность: 01:47:16
Год выпуска: 2018

В ролях: Дуэйн Джонсон, Наоми Харрис, Малин Акерман, Джеффри Дин Морган, Джейк Лэси, Джо Манганьелло, Марли Шелтон, П.Дж. Бирн, Деметриус Гросс, Джек Куэйд

Описание: Приматолог Дэвис Окойи предпочитает держаться подальше от людей и дружит с Джорджем, удивительно умным самцом гориллы, которого он воспитывал с самого рождения. Но вышедший из-под контроля генетический эксперимент превращает послушную обезьяну в яростного монстра. Более того, вскоре обнаруживается, что существуют и другие модифицированные хищники. Пока свежесозданные чудовища превращают в руины Северную Америку, стирая с лица Земли все, что попадается у них на пути, Окойи вместе с опальным генным инженером пытается изобрести антидот, прорываясь по бесконечному полю боя не только, чтобы предотвратить глобальную катастрофу, но и спасти бесстрашное существо, которое когда-то было его другом.



Видео: 1056x440 (2,40:1), 23.976 fps, AVC MPEG-4 (x264), High@L4,1 ~ 2020 Кбит/сек, 0.181 bit/pixel

Аудио#1: Русский: 48 kHz/16 bits, AC3 Dolby Digital, 3/2 (L,C,R,l,r) + LFE ch, ~ 448 kbps avg [Профессиональный (полное дублирование), Лицензия]
Аудио#2: Английский: 48 kHz/16 bits, AC3 Dolby Digital, 3/2 (L,C,R,l,r) + LFE ch, ~ 448 kbps avg [Оригинал]







Общее
Уникальный идентификатор : 219161378024771559632486082271990388246 (0xA4E0F230EE00327994363D14C2DA1616)
Полное имя : E:\Закачка-2\Rempeydzh.2018.DUAL.BDRip.x264.-HELLYWOOD.mkv
Формат : Matroska
Версия формата : Version 4 / Version 2
Размер файла : 2,18 Гбайт
Продолжительность : 1 ч. 47 м.
Общий поток : 2914 Кбит/сек
Название фильма : Rampage (2018)
Дата кодирования : UTC 2018-07-11 10:47:17
Программа кодирования : mkvmerge v5.9.0 ('On The Loose') built on Dec 15 2012 16:39:58
Библиотека кодирования : libebml v1.3.0 + libmatroska v1.4.0

Видео
Идентификатор : 1
Формат : AVC
Формат/Информация : Advanced Video Codec
Профиль формата :
Параметр CABAC формата : Да
Параметр ReFrames формата : 10 кадров
Идентификатор кодека : V_MPEG4/ISO/AVC
Продолжительность : 1 ч. 47 м.
Битрейт : 2020 Кбит/сек
Ширина : 1056 пикселей
Высота : 440 пикселей
Соотношение сторон : 2,40:1
Режим частоты кадров : Постоянный
Частота кадров : 23,976 (24000/1001) кадра/сек
Цветовое пространство : YUV
Субдискретизация насыщенности : 4:2:0
Битовая глубина : 8 бит
Тип развёртки : Прогрессивная
Бит/(Пиксели*Кадры) : 0.181
Размер потока : 1,47 Гбайт (67%)
Заголовок : potroks
Библиотека кодирования : x264 core 155 r2901M 7d0ff22
Настройки программы : cabac=1 / ref=10 / deblock=1:-1:-1 / analyse=0x3:0x133 / me=umh / subme=11 / psy=1 / psy_rd=1.00:0.05 / mixed_ref=1 / me_range=48 / chroma_me=1 / trellis=2 / 8x8dct=1 / cqm=0 / deadzone=21,11 / fast_pskip=0 / chroma_qp_offset=-3 / threads=9 / lookahead_threads=2 / sliced_threads=0 / nr=0 / decimate=0 / interlaced=0 / bluray_compat=0 / constrained_intra=0 / bframes=11 / b_pyramid=2 / b_adapt=2 / b_bias=0 / direct=3 / weightb=1 / open_gop=0 / weightp=2 / keyint=240 / keyint_min=23 / scenecut=40 / intra_refresh=0 / rc_lookahead=130 / rc=2pass / mbtree=0 / bitrate=2020 / ratetol=1.0 / qcomp=0.70 / qpmin=0 / qpmax=69 / qpstep=4 / cplxblur=20.0 / qblur=0.5 / vbv_maxrate=50000 / vbv_bufsize=50000 / nal_hrd=none / filler=0 / ip_ratio=1.40 / pb_ratio=1.30 / aq=2:0.80
Язык : English
Default : Да
Forced : Нет

Аудио #1
Идентификатор : 2
Формат : AC-3
Формат/Информация : Audio Coding 3
Расширение режима : CM (complete main)
Параметр Endianness формата : Big
Идентификатор кодека : A_AC3
Продолжительность : 1 ч. 47 м.
Вид битрейта : Постоянный
Битрейт : 448 Кбит/сек
Каналы : 6 каналов
Расположение каналов : Front: L C R, Side: L R, LFE
Частота : 48,0 КГц
Частота кадров : 31,250 кадров/сек (1536 spf)
Метод сжатия : С потерями
Размер потока : 344 Мбайт (15%)
Заголовок : Dub | DD 5.1 @ 448 kbps - Blu-ray CEE
Язык : Russian
Default : Да
Forced : Нет

Аудио #2
Идентификатор : 3
Формат : AC-3
Формат/Информация : Audio Coding 3
Расширение режима : CM (complete main)
Параметр Endianness формата : Big
Идентификатор кодека : A_AC3
Продолжительность : 1 ч. 47 м.
Вид битрейта : Постоянный
Битрейт : 448 Кбит/сек
Каналы : 6 каналов
Расположение каналов : Front: L C R, Side: L R, LFE
Частота : 48,0 КГц
Частота кадров : 31,250 кадров/сек (1536 spf)
Метод сжатия : С потерями
Размер потока : 344 Мбайт (15%)
Заголовок : Original | DD 5.1 @ 448 kbps
Язык : English
Default : Нет
Forced : Нет

Текст #1
Идентификатор : 4
Формат : UTF-8
Идентификатор кодека : S_TEXT/UTF8
Идентификатор кодека/Информация : UTF-8 Plain Text
Заголовок : Forced
Язык : Russian
Default : Да
Forced : Нет

Текст #2
Идентификатор : 5
Формат : UTF-8
Идентификатор кодека : S_TEXT/UTF8
Идентификатор кодека/Информация : UTF-8 Plain Text
Заголовок : iTunes
Язык : Russian
Default : Нет
Forced : Нет

Текст #3
Идентификатор : 6
Формат : UTF-8
Идентификатор кодека : S_TEXT/UTF8
Идентификатор кодека/Информация : UTF-8 Plain Text
Заголовок : Full
Язык : English
Default : Нет
Forced : Нет

Текст #4
Идентификатор : 7
Формат : UTF-8
Идентификатор кодека : S_TEXT/UTF8
Идентификатор кодека/Информация : UTF-8 Plain Text
Заголовок : SDH
Язык : English
Default : Нет
Forced : Нет

Текст #5
Идентификатор : 8
Формат : UTF-8
Идентификатор кодека : S_TEXT/UTF8
Идентификатор кодека/Информация : UTF-8 Plain Text
Заголовок : SDH-Colored
Язык : English
Default : Нет
Forced : Нет

Меню
00:00:00.000 : :00:00:00.000
00:12:58.528 : :00:12:58.528
00:19:56.278 : :00:19:56.278
00:29:53.291 : :00:29:53.291
00:40:35.391 : :00:40:35.391
00:49:10.906 : :00:49:10.906
01:02:38.171 : :01:02:38.171
01:10:37.649 : :01:10:37.650
01:20:10.472 : :01:20:10.472
01:29:23.608 : :01:29:23.608
01:39:43.186 : :01:39:43.186





   Похожие торренты   Торрент   Размер 
В этой теме нет новых непрочитанных сообщений. Рэмпейдж / Rampage (Брэд Пейтон) [2018, фантастика, боевик, приключения, BDRip-AVC] DUB

76 | 0

1.49 ГБ

В этой теме нет новых непрочитанных сообщений. Рэмпейдж / Rampage (Брэд Пейтон) [2018, фантастика, боевик, приключения, BDRip-AVC] DUB

46 | 0

1.46 ГБ

В этой теме нет новых непрочитанных сообщений. Рэмпейдж / Rampage (Брэд Пейтон) [2018, фантастика, боевик, приключения, BDRip] DUB

1448 | 61

1.46 ГБ

В этой теме нет новых непрочитанных сообщений. Рэмпейдж / Rampage (Брэд Пейтон) [2018, фантастика, боевик, приключения, BDRip] DUB

216 | 8

1.41 ГБ

В этой теме нет новых непрочитанных сообщений. Рэмпейдж / Rampage (Брэд Пейтон) [2018, Фантастика, боевик, приключения, CamRip] DVO

69 | 7

1.36 ГБ

В этой теме нет новых непрочитанных сообщений. Рэмпейдж / Rampage (Брэд Пейтон) [2018, фантастика, боевик, приключения, WEB-DLRip] DUB

611 | 20

1.39 ГБ

В этой теме нет новых непрочитанных сообщений. Рэмпейдж / Rampage (Брэд Пейтон) [2018, фантастика, боевик, приключения, WEB-DLRip] DUB

154 | 16

1.46 ГБ




Вы не можете начинать темы
Вы не можете отвечать на сообщения
Вы не можете редактировать свои сообщения
Вы не можете удалять свои сообщения
Вы не можете добавлять вложения

Перейти:  
 Вход
ppkBB3cker v.2 © 2008-2014 @ PPK
[ Time : 0.048s | 16 Queries | GZIP : Off ]

cron