img image001 image001 image001 image001 image001 image001 image001 image001 image001 image001 image001 image001 image001 image001 image001 image001

Planets Sun Sun Sun
Статистика раздачи
Автор: Снежана | Размер: 1.66 ГБ | Добавлен: 23 июл 2018
Раздают: 14    Качают: 0
Скачать торрент
Скачать торрент
Описание торрента

СообщениеДобавлено: 23 июл 2018 

Девушка из Монако / La fille de Monaco


Перевод: Профессиональный (полное дублирование)
Cубтитры: отсутствуют
Формат: DVDRip-AVC, MKV, H.264, AC3
Страна: Франция
Режиссер: Анн Фонтен
Жанр: Драма, комедия
Продолжительность: 01:30:15
Год выпуска: 2008

В ролях: Фабрис Лукини, Рошди Зем, Стефан Одран, Жиль Коэн, Александр Стайгер, Филипп Дюкло, Жанна Балибар, Элен де Сен-Пер, Луиз Бургуан, Кристоф Ван Де Вельде

Описание: Преуспевающий адвокат приезжает в Монако, чтобы защищать клиента в суде. Но думать о работе не получается: он влюбляется в роковую красотку. Эта дерзкая и нахальная чертовка превращает жизнь несчастного в настоящую катастрофу. К счастью, рядом с нашим героем есть доблестный телохранитель, который, поможет клиенту сконцентрироваться на работе. Но захочет ли этого новоявленный Ромео?



Видео: 718x428@1020x428p (2,40:1), 25,000 fps, AVC MPEG-4 (x264), ~ 1 800 Кбит/сек, 0.234 bit/pixel

Аудио#1: Русский: 48 kHz/16 bits, AC3 Dolby Digital, 6 ch, ~ 384 kbps avg [Профессиональный (полное дублирование)]
Аудио#2: Французкий: 48 kHz/16 bits, AC3 Dolby Digital, 6 ch, ~ 448 kbps avg [Оригинал]






Общее
Уникальный идентификатор : 228172634803091338793222775464999583556 (0xABA87373CC835FF380D1F97ACEFCFF44)
Полное имя : D:\ExKinoRayRips\Fille.de.Monaco.2008.DVDRip-AVC.ExKinoRay.mkv
Формат : Matroska
Версия формата : Version 2
Размер файла : 1,66 Гбайт
Продолжительность : 1 ч. 30 м.
Общий поток : 2634 Кбит/сек
Дата кодирования : UTC 2018-07-22 04:19:10
Программа кодирования : mkvmerge v7.8.0 ('River Man') 32bit built on Apr 3 2015 12:11:22
Библиотека кодирования : libebml v1.3.1 + libmatroska v1.4.2

Видео
Идентификатор : 1
Формат : AVC
Формат/Информация : Advanced Video Codec
Профиль формата :
Параметр CABAC формата : Да
Параметр ReFrames формата : 14 кадров
Идентификатор кодека : V_MPEG4/ISO/AVC
Продолжительность : 1 ч. 30 м.
Битрейт : 1800 Кбит/сек
Ширина : 718 пикселей
Высота : 428 пикселей
Соотношение сторон : 2,40:1
Режим частоты кадров : Постоянный
Частота кадров : 25,000 кадров/сек
Цветовое пространство : YUV
Субдискретизация насыщенности : 4:2:0
Битовая глубина : 8 бит
Тип развёртки : Прогрессивная
Бит/(Пиксели*Кадры) : 0.234
Размер потока : 1,10 Гбайт (66%)
Библиотека кодирования : x264 core 148 r2638 7599210
Настройки программы : cabac=1 / ref=14 / deblock=1:-2:-2 / analyse=0x3:0x133 / me=umh / subme=10 / psy=1 / psy_rd=1.05:0.15 / mixed_ref=1 / me_range=32 / chroma_me=1 / trellis=2 / 8x8dct=1 / cqm=0 / deadzone=21,11 / fast_pskip=0 / chroma_qp_offset=-3 / threads=4 / lookahead_threads=1 / sliced_threads=0 / nr=0 / decimate=0 / interlaced=0 / bluray_compat=0 / constrained_intra=0 / bframes=16 / b_pyramid=2 / b_adapt=2 / b_bias=0 / direct=3 / weightb=1 / open_gop=0 / weightp=2 / keyint=250 / keyint_min=25 / scenecut=40 / intra_refresh=0 / rc=2pass / mbtree=0 / bitrate=1800 / ratetol=1.0 / qcomp=0.60 / qpmin=0 / qpmax=69 / qpstep=4 / cplxblur=20.0 / qblur=0.5 / ip_ratio=1.40 / pb_ratio=1.30 / aq=1:1.00
Язык : English
Default : Да
Forced : Нет
Цветовой диапазон : Limited
Основные цвета : BT.601 NTSC
Характеристики трансфера : BT.601
Коэффициенты матрицы : BT.601

Аудио #1
Идентификатор : 2
Формат : AC-3
Формат/Информация : Audio Coding 3
Расширение режима : CM (complete main)
Параметр Endianness формата : Big
Идентификатор кодека : A_AC3
Продолжительность : 1 ч. 30 м.
Вид битрейта : Постоянный
Битрейт : 384 Кбит/сек
Каналы : 6 каналов
Расположение каналов : Front: L C R, Side: L R, LFE
Частота : 48,0 КГц
Частота кадров : 31,250 кадров/сек (1536 spf)
Метод сжатия : С потерями
Размер потока : 248 Мбайт (15%)
Язык : Russian
Default : Да
Forced : Нет

Аудио #2
Идентификатор : 3
Формат : AC-3
Формат/Информация : Audio Coding 3
Расширение режима : CM (complete main)
Параметр Endianness формата : Big
Идентификатор кодека : A_AC3
Продолжительность : 1 ч. 30 м.
Вид битрейта : Постоянный
Битрейт : 448 Кбит/сек
Каналы : 6 каналов
Расположение каналов : Front: L C R, Side: L R, LFE
Частота : 48,0 КГц
Частота кадров : 31,250 кадров/сек (1536 spf)
Метод сжатия : С потерями
Размер потока : 289 Мбайт (17%)
Язык : French
Default : Нет
Forced : Нет





   Похожие торренты   Торрент   Размер 
В этой теме нет новых непрочитанных сообщений. Принцесса Монако / Grace of Monaco (Оливье Даан) [2014, драма, мелодрама, биография, LowHDRip] DUB / Драмы

3 | 0

744.8 МБ

В этой теме нет новых непрочитанных сообщений. Девушка, разрезанная надвое / Одна девушка на двоих / La fille coupée en deux (2007) DVDRip

1 | 5

1.37 ГБ

В этой теме нет новых непрочитанных сообщений. Девушка и волки / La jeune fille et les loups / The Maiden and the Wolves (2008) BDRip 720p by msltel | P

58 | 20

4.87 ГБ

В этой теме нет новых непрочитанных сообщений. Девушка и волки / La jeune fille et les loups / The Maiden and the Wolves (2008) BDRip 1080p by msltel | P

30 | 5

12.41 ГБ

В этой теме нет новых непрочитанных сообщений. Принцесса Монако / Grace of Monaco (2014) Blu-Ray | Лицензия

57 | 41

20.35 ГБ

В этой теме нет новых непрочитанных сообщений. Принцесса Монако / Grace of Monaco (2014) HDTVRip-AVC | D

313 | 110

1.45 ГБ

В этой теме нет новых непрочитанных сообщений. Принцесса Монако / Grace of Monaco (2014) BDRip | D

162 | 14

753.16 МБ




Вы не можете начинать темы
Вы не можете отвечать на сообщения
Вы не можете редактировать свои сообщения
Вы не можете удалять свои сообщения
Вы не можете добавлять вложения

Перейти:  
 Вход
ppkBB3cker v.2 © 2008-2014 @ PPK
[ Time : 0.039s | 17 Queries | GZIP : Off ]

cron