img image001 image001 image001 image001 image001 image001 image001 image001 image001 image001 image001 image001 image001 image001 image001 image001

Planets Sun Sun Sun
Статистика раздачи
Автор: Снежана | Размер: 1.72 ГБ | Добавлен: 25 июл 2018
Раздают: 16    Качают: 0
Скачать торрент
Скачать торрент
Описание торрента

СообщениеДобавлено: 25 июл 2018 

Под подозрением / Under Suspicion


Перевод: Авторский (одноголосый) М.Яроцкий, субтитры: отсутствуют
Формат: WEBDLRip-AVC, MKV, H.264, AC3
Страна: США, Франция
Режиссер: Стивен Хопкинс
Жанр: триллер, драма, криминал
Продолжительность: 01:51:09
Год выпуска: 2000

В ролях: Джин Хэкмен, Морган Фриман, Томас Джейн, Моника Беллуччи, Нидия Каро, Мигель Анхель Суарез, Жаклин Дюпрей, Луис Кабальеро

Описание: Столица Пуэрто-Рико искрится праздничными огнями, влиятельный адвокат Генри Хёрст спешит на благотворительный бал. Но сначала ему нужно ответить на вопросы инспектора полиции Виктора Бенезэ касательно трупа, найденного им в парке.

Стареющий миллионер еще не знает, что этот вечер станет самым трагичным в его жизни, ибо в ближайшие часы ему предстоит выдержать жестокую интеллектуальную дуэль с опытным детективом, который обвинит его в бесчеловечных убийствах и изнасилованиях девочек из трущоб.

Все факты свидетельствуют против адвоката, но что-то настораживает проницательного сыщика, и вскоре он понимает, что узнает истину, только если заглянет в самые мрачные уголки души блистательного Генри Хёрста.




Видео: 1024x576 (16:9), 23,976 fps, MPEG4 AVC (x264), ~1766 kbps avg, 0.125 bit/pixel
Аудио: 48 kHz, AC3 Dolby Digital, 3/2 (L,C,R) + L R, LFE ch, 448 kbps
Релиз-группа:

Доп. информация: перевод доступен благодаря: Zaborik, работа со звуком: mihaildns.
Общее
Уникальный идентификатор : 246731205445529746567851554073995366473 (0xB99EB3A12F3C369A906B12D9DD43D049)
Полное имя : D:\VIDEO\Мои переводы\Under Suspicion.2000.WEBRIP-AVC.kyberpunk.mkv
Формат : Matroska
Версия формата : Version 4 / Version 2
Размер файла : 1,72 Гбайт
Продолжительность : 1 ч. 51 м.
Общий поток : 2215 Кбит/сек
Название фильма : Под подозрением
Описание : Столица Пуэрто-Рико искрится праздничными огнями, влиятельный адвокат Генри Хёрст спешит на благотворительный бал. Но сначала ему нужно ответить на вопросы инспектора полиции Виктора Бенезэ касательно трупа, найденного им в парке. Стареющий миллионер еще не знает, что этот вечер станет самым трагичным в его жизни, ибо в ближайшие часы ему предстоит выдержать жестокую интеллектуальную дуэль с опытным детективом, который обвинит его в бесчеловечных убийствах и изнасилованиях девочек из трущоб. Все факты свидетельствуют против адвоката, но что-то настораживает проницательного сыщика, и вскоре он понимает, что узнает истину, только если заглянет в самые мрачные уголки души блистательного Генри Хёрста.
Дата кодирования : UTC 2018-03-04 10:11:19
Программа кодирования : mkvmerge v14.0.0 ('Flow') 64bit
Библиотека кодирования : libebml v1.3.4 + libmatroska v1.4.5 / Lavf57.71.100
Attachments : poster.jpg
ACTORS : Gene Hackman, Morgan Freeman, Thomas Jane, Monica Bellucci, Nydia Caro, Miguel Ángel Suárez, Pablo Cunqueiro, Isabel Algaze, Jacqueline Duprey, Luis Caballero, Patricia Beato, Sahyly Yamile, Héctor Travieso, Marisol Calero, Vanessa Shenk, Eliezer Ortiz, Ramon Saldaña
COMPOSER : Ángel "Cucco" Peña
COUNTRY : United States
DATE : 2000-09-24
DIRECTOR : Stephen Hopkins
ENCODING_INFO : MATROSKA,WEBM > MKV Пользовательский / H264 > X264 CRF 18.5 Пользовательский / AC3 > COPY Безопасное
GENRE : детектив, триллер
HD_VIDEO : 1
ITUNEXTC : mpaa|R|400|
Язык : und
MEDIA_TYPE : 9
ORIGINAL_TITLE : Under Suspicion
PRODUCER : Ross Grayson Bell, Gene Hackman, Morgan Freeman, Maurice Leblond
PUBLISHER : Revelations Entertainment, TF1 International
RATING : 6.20
WRITER : Tom Provost, W. Peter Iliff, Claude Miller, Jean Herman, Michel Audiard

Видео
Идентификатор : 1
Формат : AVC
Формат/Информация : Advanced Video Codec
Профиль формата :
Параметр CABAC формата : Да
Параметр RefFrames формата : 10 кадров
Идентификатор кодека : V_MPEG4/ISO/AVC
Продолжительность : 1 ч. 51 м.
Битрейт : 1766 Кбит/сек
Ширина : 1024 пикселя
Высота : 576 пикселей
Соотношение сторон : 16:9
Режим частоты кадров : Постоянный
Частота кадров : 23,976 (24000/1001) кадра/сек
Цветовое пространство : YUV
Субдискретизация насыщенности : 4:2:0
Битовая глубина : 8 бит
Тип развёртки : Прогрессивная
Бит/(Пиксели*Кадры) : 0.125
Размер потока : 1,37 Гбайт (80%)
Заголовок : RIP_BY_-=DoMiNo=-
Библиотека кодирования : x264 core 155 r2901M 7d0ff22
Настройки программы : cabac=1 / ref=10 / deblock=1:-3:-3 / analyse=0x3:0x133 / me=umh / subme=10 / psy=1 / psy_rd=1.00:0.10 / mixed_ref=1 / me_range=32 / chroma_me=1 / trellis=2 / 8x8dct=1 / cqm=0 / deadzone=21,11 / fast_pskip=1 / chroma_qp_offset=-3 / threads=6 / lookahead_threads=1 / sliced_threads=0 / nr=0 / decimate=1 / interlaced=0 / bluray_compat=0 / constrained_intra=0 / bframes=9 / b_pyramid=2 / b_adapt=2 / b_bias=0 / direct=3 / weightb=1 / open_gop=0 / weightp=2 / keyint=240 / keyint_min=24 / scenecut=40 / intra_refresh=0 / rc_lookahead=60 / rc=crf / mbtree=1 / crf=18.5 / qcomp=0.60 / qpmin=0 / qpmax=69 / qpstep=4 / ip_ratio=1.40 / aq=1:1.00
Язык : French
Default : Да
Forced : Нет
Цветовой диапазон : Limited
Основные цвета : BT.709
Характеристики трансфера : BT.709
Коэффициенты матрицы : BT.709

Аудио
Идентификатор : 2
Формат : AC-3
Формат/Информация : Audio Coding 3
Параметр Endianness формата : Big
Идентификатор кодека : A_AC3
Продолжительность : 1 ч. 51 м.
Вид битрейта : Постоянный
Битрейт : 448 Кбит/сек
Каналы : 6 каналов
Расположение каналов : Front: L C R, Side: L R, LFE
Частота : 48,0 КГц
Частота кадров : 31,250 кадров/сек (1536 SPF)
Битовая глубина : 16 бит
Метод сжатия : С потерями
Размер потока : 356 Мбайт (20%)
Заголовок : Перевод М.Яроцкого
Язык : Russian
ServiceKind/String : Complete Main
Default : Да
Forced : Нет










   Похожие торренты   Торрент   Размер 
В этой теме нет новых непрочитанных сообщений. Под подозрением / Under Suspicion (2000) DVDRip | P

213 | 34

1.47 ГБ

В этой теме нет новых непрочитанных сообщений. Девушка в ящике / Girl in the Box (Стивен Кемп) [2016, драма, криминал, WEBDLRip] VO / Драмы

9 | 0

1.47 ГБ

В этой теме нет новых непрочитанных сообщений. Кровавые земли / Bloodlands (Стивен Кастриссиос) [2017, ужасы, триллер, драма, WEBDLRip] MVO

16 | 0

1.32 ГБ

В этой теме нет новых непрочитанных сообщений. Девушка в ящике / Girl in the Box (Стивен Кемп / Stephen Kemp) [2016, драма, криминал, WEBDLRip] VO

33 | 4

707.09 МБ

В этой теме нет новых непрочитанных сообщений. Стукач / The Hit (Стивен Фрирз) [1984, триллер, драма, криминал, LowHDRip] MVO

3 | 0

744.74 МБ

В этой теме нет новых непрочитанных сообщений. Сторонник / Dokjeon (Ли Хэ-ён) [2018, криминал, драма, боевик, триллер, WEBDLRip] MVO

8 | 0

1.35 ГБ

В этой теме нет новых непрочитанных сообщений. 22 июля / 22 July (Пол Гринграсс) [2018, триллер, драма, криминал, биография, WEBDLRip-AVC] DUB

25 | 6

3.23 ГБ




Вы не можете начинать темы
Вы не можете отвечать на сообщения
Вы не можете редактировать свои сообщения
Вы не можете удалять свои сообщения
Вы не можете добавлять вложения

Перейти:  
 Вход
ppkBB3cker v.2 © 2008-2014 @ PPK
[ Time : 0.025s | 17 Queries | GZIP : Off ]

cron