img image001 image001 image001 image001 image001 image001 image001 image001 image001 image001 image001 image001 image001 image001 image001 image001

Planets Sun Sun Sun
Статистика раздачи
Автор: Снежана | Размер: 2.18 ГБ | Добавлен: 30 июл 2018
Раздают: 78    Качают: 1
Скачать торрент
Скачать торрент
Описание торрента

СообщениеДобавлено: 30 июл 2018 

Тихое место / A Quiet Place


Перевод: Профессиональный (полное дублирование) Лицензия Blu-ray CEE
Cубтитры: усские (полные + форс.), английские (Full + SDH + SDH-Colored)
Формат: BDRip-AVC, MKV, H.264, AC3
Страна: США
Режиссер: Джон Красински
Жанр: триллер, фантастика, драма, ужасы
Продолжительность: 01:30:15
Год выпуска: 2018

В ролях: Джон Красински, Дорис МакКарти, Кейд Вудворд, Милли Симмондс, Рода Пелл, Ноа Джуп, Леон Рассом, Эмили Блант

Описание: Семья с двумя детьми живёт на отдалённой ферме. Казалось бы, жизнь этих людей совершенно не отличается от жизни других таких семей, но они живут в месте, которое наполнено ужасными монстрами, реагирующими на любой звук. Семейство разучило целый комплекс специальных жестов, которые помогают им общаться друг с другом, не издавая ни единого звука. Кроме того, каждый из членов семьи должен очень тихо передвигаться, чтобы опасные существа их не услышали. Однако дом, где живут дети, не может быть самым тихим местом на земле.



Видео: 1152x480 (2,40:1), 23.976 fps, AVC MPEG-4 (x264), ~ 2 560 Кбит/сек, 0.193 bit/pixel

Аудио#1: Русский: 48 kHz/16 bits, AC3 Dolby Digital, 3/2 (L,C,R,l,r) + LFE ch, ~ 448 kbps avg [Профессиональный (полное дублирование), Лицензия Blu-ray CEE]
Аудио#2: Английский: 48 kHz/16-bit, AC3 Dolby Digital, 3/2 (L,C,R,l,r) + LFE ch, ~ 448 kbps avg [Оригинал]







Общее
Уникальный идентификатор : 233676303060024069822509233056874407237 (0xAFCC6B3F5EBDA5369906ACBC1B1AA545)
Полное имя : E:\Закачка-2\Tihoye.Mesto.2018.DUAL.BDRip.x264.-HELLYWOOD.mkv
Формат : Matroska
Версия формата : Version 4 / Version 2
Размер файла : 2,18 Гбайт
Продолжительность : 1 ч. 30 м.
Общий поток : 3457 Кбит/сек
Название фильма : A Quiet Place (2018)
Дата кодирования : UTC 2018-07-28 02:07:31
Программа кодирования : mkvmerge v5.9.0 ('On The Loose') built on Dec 15 2012 16:39:58
Библиотека кодирования : libebml v1.3.0 + libmatroska v1.4.0

Видео
Идентификатор : 1
Формат : AVC
Формат/Информация : Advanced Video Codec
Профиль формата :
Параметр CABAC формата : Да
Параметр ReFrames формата : 10 кадров
Идентификатор кодека : V_MPEG4/ISO/AVC
Продолжительность : 1 ч. 30 м.
Битрейт : 2560 Кбит/сек
Ширина : 1152 пикселя
Высота : 480 пикселей
Соотношение сторон : 2,40:1
Режим частоты кадров : Постоянный
Частота кадров : 23,976 (24000/1001) кадра/сек
Цветовое пространство : YUV
Субдискретизация насыщенности : 4:2:0
Битовая глубина : 8 бит
Тип развёртки : Прогрессивная
Бит/(Пиксели*Кадры) : 0.193
Размер потока : 1,57 Гбайт (72%)
Заголовок : potroks
Библиотека кодирования : x264 core 155 r2901M 7d0ff22
Настройки программы : cabac=1 / ref=10 / deblock=1:-2:-2 / analyse=0x3:0x133 / me=umh / subme=11 / psy=1 / psy_rd=1.00:0.05 / mixed_ref=1 / me_range=48 / chroma_me=1 / trellis=2 / 8x8dct=1 / cqm=0 / deadzone=21,11 / fast_pskip=0 / chroma_qp_offset=-3 / threads=9 / lookahead_threads=2 / sliced_threads=0 / nr=0 / decimate=0 / interlaced=0 / bluray_compat=0 / constrained_intra=0 / bframes=11 / b_pyramid=2 / b_adapt=2 / b_bias=0 / direct=3 / weightb=1 / open_gop=0 / weightp=2 / keyint=240 / keyint_min=23 / scenecut=40 / intra_refresh=0 / rc_lookahead=130 / rc=2pass / mbtree=0 / bitrate=2560 / ratetol=1.0 / qcomp=0.70 / qpmin=0 / qpmax=69 / qpstep=4 / cplxblur=20.0 / qblur=0.5 / vbv_maxrate=50000 / vbv_bufsize=50000 / nal_hrd=none / filler=0 / ip_ratio=1.40 / pb_ratio=1.30 / aq=1:0.80
Язык : English
Default : Да
Forced : Нет

Аудио #1
Идентификатор : 2
Формат : AC-3
Формат/Информация : Audio Coding 3
Расширение режима : CM (complete main)
Параметр Endianness формата : Big
Идентификатор кодека : A_AC3
Продолжительность : 1 ч. 30 м.
Вид битрейта : Постоянный
Битрейт : 448 Кбит/сек
Каналы : 6 каналов
Расположение каналов : Front: L C R, Side: L R, LFE
Частота : 48,0 КГц
Частота кадров : 31,250 кадров/сек (1536 spf)
Метод сжатия : С потерями
Размер потока : 289 Мбайт (13%)
Заголовок : Dub | DD 5.1 @ 448 kbps - Blu-ray CEE
Язык : Russian
Default : Да
Forced : Да

Аудио #2
Идентификатор : 3
Формат : AC-3
Формат/Информация : Audio Coding 3
Расширение режима : CM (complete main)
Параметр Endianness формата : Big
Идентификатор кодека : A_AC3
Продолжительность : 1 ч. 30 м.
Вид битрейта : Постоянный
Битрейт : 448 Кбит/сек
Каналы : 6 каналов
Расположение каналов : Front: L C R, Side: L R, LFE
Частота : 48,0 КГц
Частота кадров : 31,250 кадров/сек (1536 spf)
Метод сжатия : С потерями
Размер потока : 289 Мбайт (13%)
Заголовок : Original | DD 5.1 @ 448 kbps
Язык : English
Default : Нет
Forced : Нет

Текст #1
Идентификатор : 4
Формат : UTF-8
Идентификатор кодека : S_TEXT/UTF8
Идентификатор кодека/Информация : UTF-8 Plain Text
Заголовок : Forced
Язык : Russian
Default : Да
Forced : Нет

Текст #2
Идентификатор : 5
Формат : UTF-8
Идентификатор кодека : S_TEXT/UTF8
Идентификатор кодека/Информация : UTF-8 Plain Text
Заголовок : Full
Язык : Russian
Default : Нет
Forced : Нет

Текст #3
Идентификатор : 6
Формат : UTF-8
Идентификатор кодека : S_TEXT/UTF8
Идентификатор кодека/Информация : UTF-8 Plain Text
Заголовок : Full
Язык : English
Default : Нет
Forced : Нет

Текст #4
Идентификатор : 7
Формат : UTF-8
Идентификатор кодека : S_TEXT/UTF8
Идентификатор кодека/Информация : UTF-8 Plain Text
Заголовок : SDH
Язык : English
Default : Нет
Forced : Нет

Текст #5
Идентификатор : 8
Формат : UTF-8
Идентификатор кодека : S_TEXT/UTF8
Идентификатор кодека/Информация : UTF-8 Plain Text
Заголовок : SDH-Colored
Язык : English
Default : Нет
Forced : Нет

Меню
00:00:00.000 : :00:00:00.000
00:10:19.160 : :00:10:19.160
00:14:38.044 : :00:14:38.044
00:21:52.937 : :00:21:52.937
00:25:09.717 : :00:25:09.717
00:31:05.197 : :00:31:05.197
00:36:23.431 : :00:36:23.431
00:43:47.333 : :00:43:47.333
00:47:42.735 : :00:47:42.735
00:53:48.225 : :00:53:48.225
01:00:31.461 : :01:00:31.461
01:05:55.410 : :01:05:55.410
01:10:57.879 : :01:10:57.879
01:15:29.150 : :01:15:29.150
01:23:47.314 : :01:23:47.314






   Похожие торренты   Торрент   Размер 
В этой теме нет новых непрочитанных сообщений. Тихое место / A Quiet Place (Джон Красински) [2018, ужасы, фантастика, триллер, драма, BDRip-AVC] DUB / Мистика

13 | 0

1.46 ГБ

В этой теме нет новых непрочитанных сообщений. Тихое место / A Quiet Place (Джон Красински) [2018, триллер, фантастика, драма, ужасы, BDRip] DUB / Мистика

27 | 0

1.46 ГБ

В этой теме нет новых непрочитанных сообщений. Тихое место / A Quiet Place (Джон Красински) [2018, ужасы, фантастика, триллер, драма, BDRip-AVC] DUB / Мистика

24 | 0

1.41 ГБ

В этой теме нет новых непрочитанных сообщений. Тихое место / A Quiet Place (Джон Красински) [2018, ужасы, фантастика, триллер, драма, BDRip] DUB / Мистика

41 | 6

746.96 МБ

В этой теме нет новых непрочитанных сообщений. Тихое место / A Quiet Place (Джон Красински) [2018, триллер, фантастика, драма, ужасы, BDRip] DUB / Мистика

358 | 9

1.42 ГБ

В этой теме нет новых непрочитанных сообщений. Тихое место / A Quiet Place (Джон Красински) [2018, ужасы, фантастика, триллер, драма, BDRip] DUB / Мистика

25 | 9

746.96 МБ

В этой теме нет новых непрочитанных сообщений. Тихое место / A Quiet Place (Джон Красински) [2018, триллер, фантастика, драма, ужасы, HDRip] DUB / Мистика

69 | 8

1.4 ГБ




Вы не можете начинать темы
Вы не можете отвечать на сообщения
Вы не можете редактировать свои сообщения
Вы не можете удалять свои сообщения
Вы не можете добавлять вложения

Перейти:  
 Вход
ppkBB3cker v.2 © 2008-2014 @ PPK
[ Time : 0.020s | 15 Queries | GZIP : Off ]

cron