img image001 image001 image001 image001 image001 image001 image001 image001 image001 image001 image001 image001 image001 image001 image001 image001

Planets Sun Sun Sun
Статистика раздачи
Автор: Снежана | Размер: 3.36 ГБ | Добавлен: 07 авг 2018
Раздают: 4    Качают: 1
Скачать торрент
Скачать торрент
Описание торрента

СообщениеДобавлено: 07 авг 2018 

За мной, канальи! / Mir nach, Canaillen!
Оценка релиза: 

Перевод: Профессиональный (полное дублирование) + вставки оригинала, субтитры: отсутствуют
Формат: BDRip-AVC, MKV, H.264, AC3
Страна: Германия (ГДР)
Режиссер: Ральф Кирстен
Жанр: комедия, приключения
Продолжительность: 01:47:56
Год выпуска: 1964
В ролях: Манфред Круг, Моника Войтович, Фред Дюрен, Карола Браунбок, Норберт Кристиан, Марион Ван де Камп, Харольд Хальгардт, Хельга Геринг, Марианн Вюншер, Хельмут Шрайбер, Вальтер Лендрич, Хельмут Бруххаузен, Хайнц Шольц, Хорст Папке, Ютта Ваховяк, Ганс Хардт-Хардтлофф, Отто Эрих Эденхартер
Описание:
Времена мушкетов и шпаг. В Прусском королевстве не хватает солдат, Барон Фон Юббенау пытается насильно забрать в рекруты веселого, крепкого парня Александра, но он гражданин соседнего королевства. Молодой человек не так прост, он при помощи друзей умудряется не только перехитрить Барона, но и вовлечь в интриги и придворных и самого короля, да к тому же бежать с Ульрикой, дочерью вельможи.



Видео: 1280x544 (2.35:1) 24.00 fps, MPEG4 AVC (x264) , 4000 kbps avg, 0.239 bit/pixel
Аудио #1: Русский: 48.0 kHz, AC3 Dolby Digital, 2/0 (L,R) ch, ~192 kbps [профессиональный (полное дублирование)]
Аудио #2: Немецкий: 48.0 kHz, AC3 Dolby Digital, 2/0 (L,R) ch, ~256 kbps [Оригинал]

Доп. информация: Вставки оригинала на недостающие фрагменты дублированного перевода


Complete name : D:\За_мной_канальи.1964.BDRip-AVC.3,35gb.S_Rip.mkv
Format : Matroska
File size : 3.36 GiB
Duration : 1h 47mn
Overall bit rate : 4 450 Kbps
Encoded date : UTC 2018-03-25
Writing application : mkvmerge v6.9.1 ('Blue Panther') 32bit built on Apr 18 2014 18:15:44
Writing library : libebml v1.3.0 + libmatroska v1.4.1

Video
ID : 1
Format : AVC
Format/Info : Advanced Video Codec
Format profile :
Format settings, CABAC : Yes
Format settings, ReFrames : 7 frames
Format settings, GOP : M=2, N=16
Codec ID : V_MPEG4/ISO/AVC
Duration : 1h 47mn
Bit rate : 4 000 Kbps
Width : 1 280 pixels
Height : 544 pixels
Display aspect ratio : 2.35:1
Frame rate : 24.000 fps
Color space : YUV
Chroma subsampling : 4:2:0
Bit depth : 8 bits
Scan type : Progressive
Bits/(Pixel*Frame) : 0.239
Stream size : 2.95 GiB (88%)
Title : Mir nach, Canaillen! 1964 Rip from Serjinho777
Writing library : x264 core 148 r2638 7599210
Encoding settings : cabac=1 / ref=7 / deblock=1:-1:-1 / analyse=0x3:0x111 / me=umh / subme=10 / psy=1 / psy_rd=1.00:0.20 / mixed_ref=1 / me_range=24 / chroma_me=1 / trellis=2 / 8x8dct=1 / cqm=0 / deadzone=21,11 / fast_pskip=0 / chroma_qp_offset=-3 / threads=6 / lookahead_threads=1 / sliced_threads=0 / nr=0 / decimate=0 / interlaced=0 / bluray_compat=0 / constrained_intra=0 / bframes=6 / b_pyramid=2 / b_adapt=2 / b_bias=0 / direct=3 / weightb=1 / open_gop=0 / weightp=2 / keyint=240 / keyint_min=24 / scenecut=40 / intra_refresh=0 / rc_lookahead=60 / rc=2pass / mbtree=1 / bitrate=4000 / ratetol=1.0 / qcomp=0.60 / qpmin=0 / qpmax=69 / qpstep=4 / cplxblur=20.0 / qblur=0.5 / vbv_maxrate=14000 / vbv_bufsize=14000 / nal_hrd=none / filler=0 / ip_ratio=1.40 / aq=2:1.00
Language : German

Audio #1
ID : 2
Format : AC-3
Format/Info : Audio Coding 3
Mode extension : CM (complete main)
Codec ID : A_AC3
Duration : 1h 47mn
Bit rate mode : Constant
Bit rate : 192 Kbps
Channel(s) : 2 channels
Channel positions : Front: L R
Sampling rate : 48.0 KHz
Bit depth : 16 bits
Stream size : 148 MiB (4%)
Title : DUB USSR+GER
Language : Russian

Audio #2
ID : 3
Format : AC-3
Format/Info : Audio Coding 3
Mode extension : CM (complete main)
Codec ID : A_AC3
Duration : 1h 47mn
Bit rate mode : Constant
Bit rate : 256 Kbps
Channel(s) : 2 channels
Channel positions : Front: L R
Sampling rate : 48.0 KHz
Bit depth : 16 bits
Stream size : 198 MiB (6%)
Title : Germany original
Language : German















   Похожие торренты   Торрент   Размер 
В этой теме нет новых непрочитанных сообщений. Последняя поездка на Санта-Крус / Der letzte Ritt nach Santa Cruz (1964) TVRip | L1

39 | 23

1.59 ГБ

В этой теме нет новых непрочитанных сообщений. Джуманджи: Зов джунглей / Jumanji: Welcome to the Jungle (Джейк Кэздан) [2017, фэнтези, боевик, комедия, приключения, BDRip] DUB / Приключения

188 | 9

1.46 ГБ

В этой теме нет новых непрочитанных сообщений. Джуманджи: Зов джунглей / Jumanji: Welcome to the Jungle (Джейк Кэздан) [2017, фэнтези, боевик, комедия, приключения, BDRip-AVC] DUB / Приключения

249 | 7

1.46 ГБ

В этой теме нет новых непрочитанных сообщений. Приключения няни / Adventures in Babysitting (Крис Коламбус) [1987, комедия, триллер, боевик, приключения, семейный, BDRip] DUB + MVO

0 | 2

2.18 ГБ

В этой теме нет новых непрочитанных сообщений. Приключения няни / Adventures in Babysitting (Крис Коламбус) [1987, комедия, триллер, криминал, приключения, семейный, BDRip] DUB+MVO

2 | 0

1.46 ГБ

В этой теме нет новых непрочитанных сообщений. Джуманджи: Зов джунглей / Jumanji: Welcome to the Jungle (Джейк Кэздан) [2017, фэнтези, боевик, комедия, приключения, BDRip] DUB / Приключения

73 | 8

2.18 ГБ

В этой теме нет новых непрочитанных сообщений. Король Ральф / King Ralph (Дэвид С. Уорд) [1991, мелодрама, комедия, LowHDRip-AVC] MVO

5 | 0

745.92 МБ




Вы не можете начинать темы
Вы не можете отвечать на сообщения
Вы не можете редактировать свои сообщения
Вы не можете удалять свои сообщения
Вы не можете добавлять вложения

Перейти:  
 Вход
ppkBB3cker v.2 © 2008-2014 @ PPK
[ Time : 0.048s | 18 Queries | GZIP : Off ]

cron