img image001 image001 image001 image001 image001 image001 image001 image001 image001 image001 image001 image001 image001 image001 image001 image001

Planets Sun Sun Sun
Статистика раздачи
Автор: Снежана | Размер: 2.39 ГБ | Добавлен: 07 авг 2018
Раздают: 35    Качают: 0
Скачать торрент
Скачать торрент
Описание торрента

СообщениеДобавлено: 07 авг 2018 

Да здравствует Франция! / Vive la France


Перевод: Профессиональный (полное дублирование) [Лицензия]
Субтитры: русские, французские [все субтитры внешние]
Формат: BDRip-AVC, MKV, H.264, AC3
Страна: Франция
Режиссер: Микаэль Юн
Жанр: комедия
Продолжительность: 01:36:56
Год выпуска: 2013
В ролях: Хосе Гарсия, Микаэль Юн, Изабель Фунаро, Эри Абиттан, Жером Коммандёр, Венсан Москато, Жан Франсуа Кэйри, Франк Гастамбид, Мусса Мааскри, Хамид Наджах

Описание: Два пастуха из несуществующей арабской страны Табулистан отправляются в Париж, чтобы взорвать Эйфелеву башню.



Видео: 1024x428 (2.40:1), 24.000 fps, AVC MPEG-4 (H.264), ~2600 kbps, 0.247 bit/pixel
Аудио #1: Русский: 48 kHz, AC3 Dolby Digital, 3/2 (L,C,R,l,r) + LFE ch, ~448 kbps [Профессиональный (полное дублирование)]
Аудио #2: Французский: 48 kHz, AC3 Dolby Digital, 3/2 (L,C,R,l,r) + LFE ch, ~448 kbps [Оригинал]



General
Unique ID : 29863795702679737334396557414894982299 (0x16778ECE94E519C56A0F732D6DF4D49B)
Complete name : F:\Диск\01. ФИЛЬМЫ\Да здравствует Франция! Vive la France [2013\Vive.la.France (2013).mkv
Format : Matroska
Format version : Version 4 / Version 2
File size : 2.39 GiB
Duration : 1 h 36 min
Overall bit rate : 3 532 kb/s
Writing application : XviD4PSP 7.0.455 DAILY
Writing library : Lavf57.71.100
Comment : Rip by Basma4i&TorrNADO
ErrorDetectionType : Per level 1
Attachments : poster.jpg
ENCODING_INFO : MATROSKA,WEBM > MKV Пользовательский / H264 > X264 ABR 2600kbps HQ / AC3 > AC3 CBR 448kbps / AC3 > AC3 CBR 448kbps
Language : und

Video
ID : 1
Format : AVC
Format/Info : Advanced Video Codec
Format profile :
Format settings : CABAC / 8 Ref Frames
Format settings, CABAC : Yes
Format settings, RefFrames : 8 frames
Codec ID : V_MPEG4/ISO/AVC
Duration : 1 h 36 min
Bit rate : 2 600 kb/s
Width : 1 024 pixels
Height : 428 pixels
Display aspect ratio : 2.40:1
Frame rate mode : Constant
Frame rate : 24.000 FPS
Color space : YUV
Chroma subsampling : 4:2:0
Bit depth : 8 bits
Scan type : Progressive
Bits/(Pixel*Frame) : 0.247
Stream size : 1.74 GiB (73%)
Writing library : x264 core 155 r2901M 7d0ff22
Encoding settings : cabac=1 / ref=8 / deblock=1:-3:-3 / analyse=0x3:0x133 / me=umh / subme=8 / psy=1 / psy_rd=1.00:0.20 / mixed_ref=1 / me_range=32 / chroma_me=1 / trellis=2 / 8x8dct=1 / cqm=0 / deadzone=21,11 / fast_pskip=1 / chroma_qp_offset=-3 / threads=8 / lookahead_threads=1 / sliced_threads=0 / nr=0 / decimate=1 / interlaced=0 / bluray_compat=0 / constrained_intra=0 / bframes=8 / b_pyramid=2 / b_adapt=1 / b_bias=8 / direct=1 / weightb=1 / open_gop=0 / weightp=1 / keyint=240 / keyint_min=24 / scenecut=40 / intra_refresh=0 / rc_lookahead=40 / rc=abr / mbtree=1 / bitrate=2600 / ratetol=1.0 / qcomp=0.60 / qpmin=0 / qpmax=69 / qpstep=4 / ip_ratio=1.40 / aq=1:1.00
Language : French
Default : Yes
Forced : No
Color range : Limited
Color primaries : BT.709
Transfer characteristics : BT.709
Matrix coefficients : BT.709

Audio #1
ID : 2
Format : AC-3
Format/Info : Audio Coding 3
Codec ID : A_AC3
Duration : 1 h 36 min
Bit rate mode : Constant
Bit rate : 448 kb/s
Channel(s) : 6 channels
Channel positions : Front: L C R, Side: L R, LFE
Sampling rate : 48.0 kHz
Frame rate : 31.250 FPS (1536 SPF)
Bit depth : 16 bits
Compression mode : Lossy
Stream size : 311 MiB (13%)
Language : Russian
Service kind : Complete Main
Default : Yes
Forced : No

Audio #2
ID : 3
Format : AC-3
Format/Info : Audio Coding 3
Codec ID : A_AC3
Duration : 1 h 36 min
Bit rate mode : Constant
Bit rate : 448 kb/s
Channel(s) : 6 channels
Channel positions : Front: L C R, Side: L R, LFE
Sampling rate : 48.0 kHz
Frame rate : 31.250 FPS (1536 SPF)
Bit depth : 16 bits
Compression mode : Lossy
Stream size : 311 MiB (13%)
Language : French
Service kind : Complete Main
Default : No
Forced : No

Text #1
ID : 4
Format : PGS
Codec ID : S_HDMV/PGS
Codec ID/Info : Picture based subtitle format used on BDs/HD-DVDs
Language : English
Default : Yes
Forced : No

Text #2
ID : 5
Format : PGS
Codec ID : S_HDMV/PGS
Codec ID/Info : Picture based subtitle format used on BDs/HD-DVDs
Language : French
Default : No
Forced : No

Menu
00:00:00.000 : :00:00:00.000
00:04:39.542 : :00:04:39.542
00:12:41.000 : :00:12:41.000
00:22:55.792 : :00:22:55.792
00:29:17.208 : :00:29:17.208
00:36:38.000 : :00:36:38.000
00:46:50.708 : :00:46:50.708
00:55:16.042 : :00:55:16.042
01:05:50.625 : :01:05:50.625
01:15:43.667 : :01:15:43.667
01:24:54.125 : :01:24:54.125
01:32:39.417 : :01:32:39.417







Релиз от:



   Похожие торренты   Торрент   Размер 
В этой теме нет новых непрочитанных сообщений. Да здравствует Франция! / Vive la France (2013) BDRip-AVC от MediaClub | Лицензия

0 | 3

2.46 ГБ

В этой теме нет новых непрочитанных сообщений. Да здравствует Франция! / Vive la France (2013) BDRip 720p | Лицензия

11 | 2

4.48 ГБ

В этой теме нет новых непрочитанных сообщений. Да здравствует Франция! / Vive la France (2013) BDRip-AVC от HELLYWOOD | Лицензия

27 | 10

2.19 ГБ

В этой теме нет новых непрочитанных сообщений. Да здравствует Франция! / Vive la France (2013) BDRip 720p от Leonardo and Scarabey | Лицензия

47 | 8

3.05 ГБ

В этой теме нет новых непрочитанных сообщений. Да здравствует Франция! / Vive la France (2013) HDRip-AVC | Лицензия

28 | 2

1.36 ГБ

В этой теме нет новых непрочитанных сообщений. Да здравствует Франция! / Vive la France (2013) HDRip | Лицензия

0 | 2

700.36 МБ

В этой теме нет новых непрочитанных сообщений. Да здравствует Франция! / Vive la France (2013) HDRip | Лицензия

13 | 3

1.46 ГБ




Вы не можете начинать темы
Вы не можете отвечать на сообщения
Вы не можете редактировать свои сообщения
Вы не можете удалять свои сообщения
Вы не можете добавлять вложения

Перейти:  
 Вход
ppkBB3cker v.2 © 2008-2014 @ PPK
[ Time : 0.041s | 17 Queries | GZIP : Off ]

cron