img image001 image001 image001 image001 image001 image001 image001 image001 image001 image001 image001 image001 image001 image001 image001 image001

Planets Sun Sun Sun
Статистика раздачи
Автор: Снежана | Размер: 2.04 ГБ | Добавлен: 07 авг 2018
Раздают: 28    Качают: 0
Скачать торрент
Скачать торрент
Описание торрента

СообщениеДобавлено: 07 авг 2018 

Джози / Josie

Слоган: «Вы не сможете спрятаться от своего прошлого, когда приходит месть… »


Перевод: Профессиональный (многоголосый закадровый) [HDRezka Studio]
Субтитры: английские
Формат: WEBDLRip-AVC, MKV, H.264, AC3
Страна: США
Режиссер: Эрик Инглэнд
Жанр: триллер, драма
Продолжительность: 01:27:20
Год выпуска: 2017
В ролях: Софи Тернер, Дилан МакДермотт, Дег Ферч, Джек Килмер, Курт Фуллер, Робин Бартлетт, Ломбардо Бойяр, Джордж Тодд МакЛахлан, Мика Фицджералд, Мики Ферч

Описание: Бывший тюремщик Хэнк, некогда работавший в камере смертников, устраивается охранником на школьную парковку в тихом городке. Его однообразная затворническая жизнь неожиданно меняется после появления новенькой старшеклассницы, с которой у Хэнка завязываются неоднозначные отношения.



Видео: 1024x430 (2.40:1), 23.976 fps, AVC MPEG-4 (H.264), ~2600 kbps, 0.246 bit/pixel
Аудио #1: Русский: 48 kHz, AC3 Dolby Digital, 2/0 (L,R) ch, ~384 kbps [Профессиональный (многоголосый закадровый)]
Аудио #2: Английский: 48 kHz, AC3 Dolby Digital, 3/2 (L,C,R,l,r) + LFE ch, ~384 kbps [Оригинал]
Дополнительно: Сохранены оригинальные главы (чаптеры)



General
Unique ID : 15732165544400759759098171172370839272 (0xBD5E7A5A39B0E7AE16959B16634F6E8)
Complete name : F:\Диск\01. ФИЛЬМЫ\Джози Josie 2017\Josie.2017.mkv
Format : Matroska
Format version : Version 4 / Version 2
File size : 2.04 GiB
Duration : 1 h 27 min
Overall bit rate : 3 348 kb/s
Writing application : XviD4PSP 7.0.455 DAILY
Writing library : Lavf57.71.100
Comment : Rip by Basma4i&TorrNADO
ErrorDetectionType : Per level 1
Attachments : poster.jpg
ENCODING_INFO : MATROSKA,WEBM > MKV Пользовательский / H264 > X264 ABR 2600kbps HQ / AC3 > AC3 CBR 384kbps / AC3 > AC3 CBR 384kbps
Language : und

Video
ID : 1
Format : AVC
Format/Info : Advanced Video Codec
Format profile :
Format settings : CABAC / 8 Ref Frames
Format settings, CABAC : Yes
Format settings, RefFrames : 8 frames
Codec ID : V_MPEG4/ISO/AVC
Duration : 1 h 27 min
Bit rate : 2 600 kb/s
Width : 1 024 pixels
Height : 430 pixels
Display aspect ratio : 2.40:1
Frame rate mode : Constant
Frame rate : 23.976 (24000/1001) FPS
Color space : YUV
Chroma subsampling : 4:2:0
Bit depth : 8 bits
Scan type : Progressive
Bits/(Pixel*Frame) : 0.246
Stream size : 1.53 GiB (75%)
Writing library : x264 core 155 r2901M 7d0ff22
Encoding settings : cabac=1 / ref=8 / deblock=1:-3:-3 / analyse=0x3:0x133 / me=umh / subme=8 / psy=1 / psy_rd=1.00:0.20 / mixed_ref=1 / me_range=32 / chroma_me=1 / trellis=2 / 8x8dct=1 / cqm=0 / deadzone=21,11 / fast_pskip=1 / chroma_qp_offset=-3 / threads=8 / lookahead_threads=1 / sliced_threads=0 / nr=0 / decimate=1 / interlaced=0 / bluray_compat=0 / constrained_intra=0 / bframes=8 / b_pyramid=2 / b_adapt=1 / b_bias=8 / direct=1 / weightb=1 / open_gop=0 / weightp=1 / keyint=240 / keyint_min=24 / scenecut=40 / intra_refresh=0 / rc_lookahead=40 / rc=abr / mbtree=1 / bitrate=2600 / ratetol=1.0 / qcomp=0.60 / qpmin=0 / qpmax=69 / qpstep=4 / ip_ratio=1.40 / aq=1:1.00
Language : English
Default : Yes
Forced : No
Color range : Limited
Color primaries : BT.709
Transfer characteristics : BT.709
Matrix coefficients : BT.709

Audio #1
ID : 2
Format : AC-3
Format/Info : Audio Coding 3
Codec ID : A_AC3
Duration : 1 h 27 min
Bit rate mode : Constant
Bit rate : 384 kb/s
Channel(s) : 2 channels
Channel positions : Front: L R
Sampling rate : 48.0 kHz
Frame rate : 31.250 FPS (1536 SPF)
Bit depth : 16 bits
Compression mode : Lossy
Stream size : 240 MiB (11%)
Title : HDRezka
Language : Russian
Service kind : Complete Main
Default : Yes
Forced : No

Audio #2
ID : 3
Format : AC-3
Format/Info : Audio Coding 3
Codec ID : A_AC3
Duration : 1 h 27 min
Bit rate mode : Constant
Bit rate : 384 kb/s
Channel(s) : 6 channels
Channel positions : Front: L C R, Side: L R, LFE
Sampling rate : 48.0 kHz
Frame rate : 31.250 FPS (1536 SPF)
Bit depth : 16 bits
Compression mode : Lossy
Stream size : 240 MiB (11%)
Title : Original
Language : English
Service kind : Complete Main
Default : No
Forced : No

Text
ID : 4
Format : UTF-8
Codec ID : S_TEXT/UTF8
Codec ID/Info : UTF-8 Plain Text
Language : English
Default : Yes
Forced : No

Menu
00:00:00.000 : :01
00:05:50.000 : :02
00:11:04.000 : :03
00:17:03.000 : :04
00:21:20.000 : :05
00:27:05.000 : :06
00:32:51.000 : :07
00:38:03.000 : :08
00:43:35.000 : :09
00:49:04.000 : :10
00:54:18.000 : :11
01:00:02.000 : :12
01:05:04.000 : :13
01:11:02.000 : :14
01:15:44.000 : :15
01:22:23.000 : :16









Релиз от:



   Похожие торренты   Торрент   Размер 
В этой теме нет новых непрочитанных сообщений. Джози / Josie (Эрик Инглэнд) [2018, триллер, драма, BDRip] MVO

77 | 6

1.46 ГБ

В этой теме нет новых непрочитанных сообщений. Баллада о Джози / The Ballad of Josie (1967) DVDRip | L1

57 | 0

1.37 ГБ

В этой теме нет новых непрочитанных сообщений. Входящий / Incoming (Эрик Сарагоса) [2018, боевик, фантастика, триллер, WEBDLRip] MVO

43 | 0

1.31 ГБ

В этой теме нет новых непрочитанных сообщений. Мёбиус / Mobius (Эрик Рошан) [2013, триллер, драма, LowHDRip] DUB

0 | 0

744.47 МБ

В этой теме нет новых непрочитанных сообщений. Мёбиус / Mobius (Эрик Рошан) [2013, триллер, драма, HDRip-AVC] DUB

0 | 0

1.45 ГБ

В этой теме нет новых непрочитанных сообщений. Непостижимое / Inconceivable (Джонатан Бэйкер) [2017, триллер, драма, WEBDLRip] MVO

13 | 0

1.37 ГБ

В этой теме нет новых непрочитанных сообщений. Чистокровные / Thoroughbreds (Кори Финли) [2017, триллер, драма, WEBDLRip] MVO

3 | 0

1.29 ГБ




Вы не можете начинать темы
Вы не можете отвечать на сообщения
Вы не можете редактировать свои сообщения
Вы не можете удалять свои сообщения
Вы не можете добавлять вложения

Перейти:  
 Вход
ppkBB3cker v.2 © 2008-2014 @ PPK
[ Time : 0.041s | 17 Queries | GZIP : Off ]

cron