img image001 image001 image001 image001 image001 image001 image001 image001 image001 image001 image001 image001 image001 image001 image001 image001

Planets Sun Sun Sun
Статистика раздачи
Автор: Снежана | Размер: 2.17 ГБ | Добавлен: 07 авг 2018
Раздают: 15    Качают: 0
Скачать торрент
Скачать торрент
Описание торрента

СообщениеДобавлено: 07 авг 2018 

Я, снова я и Ирэн / Me, Myself & Irene


Перевод: Профессиональный (полное дублирование), субтитры: отсутствуют
Формат: HDRip-AVC, MKV, H.264, AC3
Страна: США
Режиссер: Бобби Фаррелли, Питер Фаррелли
Жанр: комедия, приключения
Продолжительность: 01:56:33
Год выпуска: 2000
В ролях: Джим Керри, Рене Зельвегер, Энтони Андерсон, Соо Браунли, Кейт Форстер, Джерод Миксон, Крис Купер, Майкл Боуман, Ричард Дженкинс, Роберт Форстер

Описание: Чарли добрый и отзывчивый патрульный полицейский. Но вот беда – он страдает раздвоением личности. Когда кто-то пытается надавить на него, появляется Хэнк – второе «Я» Чарли. Это грубый, жестокий, агрессивный и невоспитанный тип, любитель выпивки и сквернословия. Жизнь Чарли превращается в сущий кошмар, ибо Хэнк всегда появляется не вовремя, и постоянно портит ему жизнь. Только в одном их мнения совпадают, - они оба влюбляются в Ирен, но кого из них выберет капризная красавица?



Видео: 1024x544 (1,882), 23,976 fps, AVC MPEG4 (x264), ~1784 kbps avg, 0.134 bit/pixel
Аудио #1: Русский:48 kHz, AC3 Dolby Digital, 6/0 (L C R, Side: L R, LFE) ch, ~384 kbps [Профессиональный (полное дублирование)]
Аудио #2: Английский:48 kHz, AC3 Dolby Digital, 6/0 (L C R, Side: L R, LFE) ch, ~448 kbps [Оригинал]

General
Unique ID : 237418638952130103210382535207612172772 (0xB29D2AA70AB91868BA4C9CD48035C9E4)
Complete name : C:\Users\Юрик\Desktop\Me,.Myself.&.Irene.2000_[tfile.ru].mkv
Format : Matroska
Format version : Version 4 / Version 2
File size : 2.17 GiB
Duration : 1h 56mn
Overall bit rate : 2 669 Kbps
Encoded date : UTC 2018-08-07 09:47:16
Writing application : mkvmerge v7.4.0 ('Circles') 64bit built on Dec 12 2014 12:19:56
Writing library : libebml v1.3.0 + libmatroska v1.4.1
DURATION : 01:56:33.984000000
NUMBER_OF_FRAMES : 218562
NUMBER_OF_BYTES : 391663104
_STATISTICS_WRITING_APP : mkvmerge v7.4.0 ('Circles') 64bit built on Dec 12 2014 12:19:56
_STATISTICS_WRITING_DATE_UTC : 2018-08-07 09:47:16
_STATISTICS_TAGS : BPS DURATION NUMBER_OF_FRAMES NUMBER_OF_BYTES

Video
ID : 2
Format : AVC
Format/Info : Advanced Video Codec
Format profile :
Format settings, CABAC : Yes
Format settings, ReFrames : 2 frames
Codec ID : V_MPEG4/ISO/AVC
Duration : 1h 56mn
Bit rate : 1 784 Kbps
Width : 1 024 pixels
Height : 544 pixels
Display aspect ratio : 1.882
Frame rate mode : Constant
Frame rate : 23.976 fps
Color space : YUV
Chroma subsampling : 4:2:0
Bit depth : 8 bits
Scan type : Progressive
Bits/(Pixel*Frame) : 0.134
Stream size : 1.45 GiB (67%)
Language : English
Default : Yes
Forced : No
DURATION : 01:56:34.029000000
NUMBER_OF_FRAMES : 167689
NUMBER_OF_BYTES : 1604320679
_STATISTICS_WRITING_APP : mkvmerge v7.4.0 ('Circles') 64bit built on Dec 12 2014 12:19:56
_STATISTICS_WRITING_DATE_UTC : 2018-08-07 09:47:16
_STATISTICS_TAGS : BPS DURATION NUMBER_OF_FRAMES NUMBER_OF_BYTES

Audio #1
ID : 1
Format : AC-3
Format/Info : Audio Coding 3
Mode extension : CM (complete main)
Format settings, Endianness : Big
Codec ID : A_AC3
Duration : 1h 56mn
Bit rate mode : Constant
Bit rate : 384 Kbps
Channel(s) : 6 channels
Channel positions : Front: L C R, Side: L R, LFE
Sampling rate : 48.0 KHz
Compression mode : Lossy
Stream size : 320 MiB (14%)
Title : DD 5.1 [дубляж]
Language : Russian
Default : Yes
Forced : No
DURATION : 01:56:27.904000000
NUMBER_OF_FRAMES : 218372
NUMBER_OF_BYTES : 335419392
_STATISTICS_WRITING_APP : mkvmerge v7.4.0 ('Circles') 64bit built on Dec 12 2014 12:19:56
_STATISTICS_WRITING_DATE_UTC : 2018-08-07 09:47:16
_STATISTICS_TAGS : BPS DURATION NUMBER_OF_FRAMES NUMBER_OF_BYTES

Audio #2
ID : 3
Format : AC-3
Format/Info : Audio Coding 3
Mode extension : CM (complete main)
Format settings, Endianness : Big
Codec ID : A_AC3
Duration : 1h 56mn
Bit rate mode : Constant
Bit rate : 448 Kbps
Channel(s) : 6 channels
Channel positions : Front: L C R, Side: L R, LFE
Sampling rate : 48.0 KHz
Compression mode : Lossy
Stream size : 374 MiB (17%)
Default : No
Forced : No



















   Похожие торренты   Торрент   Размер 
В этой теме нет новых непрочитанных сообщений. Я, снова я и Ирэн / Me, Myself & Irene (Бобби Фаррелли, Питер Фаррелли) [2000, комедия, HDRip] DUB

4 | 0

1.45 ГБ

В этой теме нет новых непрочитанных сообщений. Тупой и еще тупее / Dumb and Dumber (Питер Фаррелли, Бобби Фаррелли) [1994, комедия, BDRip-AVC] DVO+MVO+AVO

6 | 0

1.46 ГБ

В этой теме нет новых непрочитанных сообщений. Я, снова я и Ирэн / Me, Myself & Irene (2000) HDRip-AVC от New-Team | D

3 | 3

745.47 МБ

В этой теме нет новых непрочитанных сообщений. Я, снова я и Ирэн / Me, Myself & Irene (2000) BDRip-AVC от 0ptimus | D, A

55 | 40

3.62 ГБ

В этой теме нет новых непрочитанных сообщений. Я, снова я и Ирэн / Me, Myself & Irene (2000) BDRip 1080p | D, P, A

104 | 25

11.85 ГБ

В этой теме нет новых непрочитанных сообщений. Я, снова я и Ирэн / Me, Myself & Irene (2000) BDRip 720p от HDCLUB

149 | 25

8.74 ГБ

В этой теме нет новых непрочитанных сообщений. Приключения Тома Сойера / Tom and Huck (Питер Хьюитт) [1995, драма, комедия, приключения, семейный, WEBDLRip-AVC] MVO / Приключения

7 | 2

2.93 ГБ




Вы не можете начинать темы
Вы не можете отвечать на сообщения
Вы не можете редактировать свои сообщения
Вы не можете удалять свои сообщения
Вы не можете добавлять вложения

Перейти:  
 Вход
ppkBB3cker v.2 © 2008-2014 @ PPK
[ Time : 0.040s | 17 Queries | GZIP : Off ]

cron