img image001 image001 image001 image001 image001 image001 image001 image001 image001 image001 image001 image001 image001 image001 image001 image001

Planets Sun Sun Sun
Статистика раздачи
Автор: Снежана | Размер: 1.61 ГБ | Добавлен: 08 авг 2018
Раздают: 36    Качают: 0
Скачать торрент
Скачать торрент
Описание торрента

СообщениеДобавлено: 08 авг 2018 

Эвтанайзер / Armomurhaaja


Перевод: Любительский (двухголосый закадровый) [datynet & Galina Vasyukova]
Субтитры: английские [вшитые отключаемые]
Формат: HDTVRip-AVC, MKV, H.264, AC3
Страна: Финляндия
Режиссер: Теэму Никки
Жанр: триллер, драма
Продолжительность: 01:24:00
Год выпуска: 2017
В ролях: Илари Йоханссон, Сантту Карвонен, Хейкки Ноусилайнен, Матти Оннисмаа, Пихла Пенттинен, Алина Томникова, Яри Вирман, Джоуко Пуоланто, Ханнамайя Никандер, Эрин Хедберг, Джоэль Хирвонен, Тиина Хаттунен, Пекка Кеттунен, Юха Лехти, Ансси Ниеми, Петри Паттонен, Олли Рахконен, Рами Русинен, Петри Тийхонен, Вертти Виркаярви, Янина Витковски.

Описание: Главный герой — нелюдимый механик, у которого, помимо ремонта автомобилей, есть ещё одна работа. Он — эвтанайзер, человек, который усыпляет домашних животных по желанию их хозяев. Несмотря на мрачную работу и замкнутость, механик не лишён сострадания. Однажды он решает не усыплять собаку, которую ему привезли. С этого момента и начинаются проблемы.



Видео: 1024x428 (2.40:1), 24.000 fps, AVC MPEG-4 (H.264), ~2600 kbps, 0.247 bit/pixel
Аудио: 48 kHz, AC3 Dolby Digital, 2/0 (L,R) ch, ~192 kbps



General
Unique ID : 109087077765639704123364994975842767017 (0x5211682EA0399DB267FB564633F510A9)
Complete name : F:\Диск\01. ФИЛЬМЫ\Эвтанайзер Armomurhaaja 2017\Armomurhaaja (2017).mkv
Format : Matroska
Format version : Version 4 / Version 2
File size : 1.61 GiB
Duration : 1 h 24 min
Overall bit rate : 2 746 kb/s
Encoded date : UTC 2018-08-08 00:26:17
Writing application : mkvmerge v25.0.0 ('Prog Noir') 64-bit
Writing library : libebml v1.3.6 + libmatroska v1.4.9 / Lavf57.71.100
Comment : Rip by Basma4i&TorrNADO
ENCODING_INFO : MATROSKA,WEBM > MKV Пользовательский / H264 > X264 ABR 2600kbps HQ / MP3 > AC3 CBR 192kbps

Video
ID : 1
Format : AVC
Format/Info : Advanced Video Codec
Format profile :
Format settings : CABAC / 7 Ref Frames
Format settings, CABAC : Yes
Format settings, RefFrames : 7 frames
Codec ID : V_MPEG4/ISO/AVC
Duration : 1 h 23 min
Bit rate : 2 600 kb/s
Width : 1 024 pixels
Height : 428 pixels
Display aspect ratio : 2.40:1
Frame rate mode : Constant
Frame rate : 24.000 FPS
Color space : YUV
Chroma subsampling : 4:2:0
Bit depth : 8 bits
Scan type : Progressive
Bits/(Pixel*Frame) : 0.247
Stream size : 1.50 GiB (93%)
Writing library : x264 core 155 r2901M 7d0ff22
Encoding settings : cabac=1 / ref=8 / deblock=1:-3:-3 / analyse=0x3:0x133 / me=umh / subme=8 / psy=1 / psy_rd=1.00:0.20 / mixed_ref=1 / me_range=16 / chroma_me=1 / trellis=2 / 8x8dct=1 / cqm=0 / deadzone=21,11 / fast_pskip=1 / chroma_qp_offset=-3 / threads=5 / lookahead_threads=1 / sliced_threads=0 / nr=0 / decimate=1 / interlaced=0 / bluray_compat=0 / constrained_intra=0 / bframes=8 / b_pyramid=1 / b_adapt=1 / b_bias=8 / direct=1 / weightb=1 / open_gop=0 / weightp=1 / keyint=240 / keyint_min=24 / scenecut=40 / intra_refresh=0 / rc_lookahead=40 / rc=abr / mbtree=1 / bitrate=2600 / ratetol=1.0 / qcomp=0.60 / qpmin=0 / qpmax=69 / qpstep=4 / ip_ratio=1.40 / aq=1:1.00
Language : English
Default : Yes
Forced : No
Color range : Limited
Color primaries : BT.709
Transfer characteristics : BT.709
Matrix coefficients : BT.709

Audio
ID : 2
Format : AC-3
Format/Info : Audio Coding 3
Codec ID : A_AC3
Duration : 1 h 24 min
Bit rate mode : Constant
Bit rate : 192 kb/s
Channel(s) : 2 channels
Channel positions : Front: L R
Sampling rate : 48.0 kHz
Frame rate : 31.250 FPS (1536 SPF)
Bit depth : 16 bits
Compression mode : Lossy
Stream size : 115 MiB (7%)
Title : datynet & Galina Vasyukova
Language : Russian
Service kind : Complete Main
Default : Yes
Forced : No

Text
ID : 3
Format : UTF-8
Codec ID : S_TEXT/UTF8
Codec ID/Info : UTF-8 Plain Text
Duration : 1 h 19 min
Bit rate : 33 b/s
Count of elements : 530
Stream size : 19.2 KiB (0%)
Language : English
Default : Yes
Forced : No







Релиз от:



   Похожие торренты   Торрент   Размер 
В этой теме нет новых непрочитанных сообщений. Эвтанайзер / Armomurhaaja (Теэму Никки / Teemu Nikki) [2017, триллер, HDTVRip] DVO / Фильмы HDRip

33 | 0

1.41 ГБ

В этой теме нет новых непрочитанных сообщений. Круг, 1 сезон 1-10 серии из 12 / Sseokeul [SoftBox] (Мин Чжи Ки) [2017, фантастика, триллер, драма, HDTVRip-AVC, L2]

48 | 16

10.36 ГБ

В этой теме нет новых непрочитанных сообщений. Убийца парня / Boyfriend Killer (Элин Дарне) [2017, триллер, драма, HDTVRip] MVO

0 | 0

1.37 ГБ

В этой теме нет новых непрочитанных сообщений. Круг, 1 сезон 1-12 серии из 12 / Sseokeul [SoftBox] (Мин Чжи Ки) [2017, фантастика, триллер, драма, HDTVRip-AVC, L2]

2 | 0

12.32 ГБ

В этой теме нет новых непрочитанных сообщений. Убийства на Мартинике / Meurtres en Martinique (Дени Майеваль) [2017, триллер, драма, HDTVRip] MVO

6 | 0

1.37 ГБ

В этой теме нет новых непрочитанных сообщений. Бронзовый сад, 1 сезон 1-3 серии из 8 / El Jardin de Bronce [ViruseProject] (Густаво Малайович) [2017, триллер, детектив, драма, HDTVRip, P2]

9 | 1

2.51 ГБ

В этой теме нет новых непрочитанных сообщений. Улицa (1-79 серии) (Жанна Кадникова, Николай Бурлак, Михаил Соловьёв (II)) [2017, драма, комедия, мелодрама, триллер, HDTVRip-AVC]

53 | 182

26.47 ГБ




Вы не можете начинать темы
Вы не можете отвечать на сообщения
Вы не можете редактировать свои сообщения
Вы не можете удалять свои сообщения
Вы не можете добавлять вложения

Перейти:  
 Вход
ppkBB3cker v.2 © 2008-2014 @ PPK
[ Time : 0.173s | 15 Queries | GZIP : Off ]

cron