img image001 image001 image001 image001 image001 image001 image001 image001 image001 image001 image001 image001 image001 image001 image001 image001

Planets Sun Sun Sun
Статистика раздачи
Автор: Снежана | Размер: 2.13 ГБ | Добавлен: 08 авг 2018
Раздают: 58    Качают: 4
Скачать торрент
Скачать торрент
Описание торрента

СообщениеДобавлено: 08 авг 2018 

Жёлтые птицы / The Yellow Birds

Слоган: «Есть моменты, которые проверяют нас и выборы, которые определяют нас»

Перевод: Профессиональный (многоголосый закадровый) [HDrezka Studio]
Субтитры: Английские (полные, SDH) [вшитые отключаемые]
Формат: BDRip-AVC, MKV, H.264, AC3
Страна: США
Режиссер: Александр Мурс
Жанр: драма, военный
Продолжительность: 01:35:05
Год выпуска: 2017
В ролях: Олден Эренрайк, Дженнифер Энистон, Тай Шеридан, Тони Коллетт, Джейсон Патрик, Джек Хьюстон, Ли Тергесен, Роберт Пралго, Айлин Тецель, Рене Уиллетт

Описание: Два подростка, Брендон Бартл и Дэниел Мерфи, оказываются в самом пекле Иракской войны. Между парнями завязывается крепкая дружба, но домой сможет вернуться только Брендон. Теперь он должен помочь матери Дэниела смириться с потерей и разобраться, как череда случайностей унесла жизнь друга.



Видео: 1024x428 (2.40:1), 23.976 fps, AVC MPEG-4 (H.264), ~2600 kbps, 0.247 bit/pixel
Аудио #1: Русский: 48 kHz, AC3 Dolby Digital, 2 (L,R) ch, ~192.00 kbps avg [Профессиональный (многоголосый закадровый)]
Аудио #2: Английский: 48 kHz, AC3 Dolby Digital, 3/2 (L,C,R,l,r) + LFE ch, ~448.00 kbps avg [Оригинал]
Дополнительно: Сохранены оригинальные главы (чаптеры)



General
Unique ID : 301088532235858481117146312123807649561 (0xE2838AC175BD700B0E8B176053374F19)
Complete name : F:\Диск\01. ФИЛЬМЫ\Жёлтые птицы The Yellow Birds 2017\The.Yellow.Birds.2017.BDRip(720p).OlLanDGroup_encoded.mkv
Format : Matroska
Format version : Version 4 / Version 2
File size : 2.13 GiB
Duration : 1 h 35 min
Overall bit rate : 3 203 kb/s
Writing application : XviD4PSP 7.0.455 DAILY
Writing library : Lavf57.71.100
Comment : Rip by Basma4i&TorrNADO
ErrorDetectionType : Per level 1
Attachments : poster.jpg
ENCODING_INFO : MATROSKA,WEBM > MKV Пользовательский / H264 > X264 ABR 2600kbps HQ / AC3 > AC3 CBR 192kbps / AC3 > AC3 CBR 448kbps
Language : und

Video
ID : 1
Format : AVC
Format/Info : Advanced Video Codec
Format profile :
Format settings : CABAC / 8 Ref Frames
Format settings, CABAC : Yes
Format settings, RefFrames : 8 frames
Codec ID : V_MPEG4/ISO/AVC
Duration : 1 h 35 min
Bit rate : 2 600 kb/s
Width : 1 024 pixels
Height : 428 pixels
Display aspect ratio : 2.40:1
Frame rate mode : Constant
Frame rate : 23.976 (24000/1001) FPS
Color space : YUV
Chroma subsampling : 4:2:0
Bit depth : 8 bits
Scan type : Progressive
Bits/(Pixel*Frame) : 0.247
Stream size : 1.66 GiB (78%)
Writing library : x264 core 155 r2901M 7d0ff22
Encoding settings : cabac=1 / ref=8 / deblock=1:-3:-3 / analyse=0x3:0x133 / me=umh / subme=8 / psy=1 / psy_rd=1.00:0.20 / mixed_ref=1 / me_range=16 / chroma_me=1 / trellis=2 / 8x8dct=1 / cqm=0 / deadzone=21,11 / fast_pskip=1 / chroma_qp_offset=-3 / threads=5 / lookahead_threads=1 / sliced_threads=0 / nr=0 / decimate=1 / interlaced=0 / bluray_compat=0 / constrained_intra=0 / bframes=8 / b_pyramid=2 / b_adapt=1 / b_bias=8 / direct=1 / weightb=1 / open_gop=0 / weightp=1 / keyint=240 / keyint_min=24 / scenecut=40 / intra_refresh=0 / rc_lookahead=40 / rc=abr / mbtree=1 / bitrate=2600 / ratetol=1.0 / qcomp=0.60 / qpmin=0 / qpmax=69 / qpstep=4 / ip_ratio=1.40 / aq=1:1.00
Language : English
Default : Yes
Forced : No
Color range : Limited
Color primaries : BT.709
Transfer characteristics : BT.709
Matrix coefficients : BT.709

Audio #1
ID : 2
Format : AC-3
Format/Info : Audio Coding 3
Codec ID : A_AC3
Duration : 1 h 35 min
Bit rate mode : Constant
Bit rate : 192 kb/s
Channel(s) : 2 channels
Channel positions : Front: L R
Sampling rate : 48.0 kHz
Frame rate : 31.250 FPS (1536 SPF)
Bit depth : 16 bits
Compression mode : Lossy
Stream size : 131 MiB (6%)
Title : MVO [HDRezka Studio]
Language : Russian
Service kind : Complete Main
Default : Yes
Forced : No

Audio #2
ID : 3
Format : AC-3
Format/Info : Audio Coding 3
Codec ID : A_AC3
Duration : 1 h 35 min
Bit rate mode : Constant
Bit rate : 448 kb/s
Channel(s) : 6 channels
Channel positions : Front: L C R, Side: L R, LFE
Sampling rate : 48.0 kHz
Frame rate : 31.250 FPS (1536 SPF)
Bit depth : 16 bits
Compression mode : Lossy
Stream size : 305 MiB (14%)
Title : Original
Language : English
Service kind : Complete Main
Default : No
Forced : No

Text #1
ID : 4
Format : UTF-8
Codec ID : S_TEXT/UTF8
Codec ID/Info : UTF-8 Plain Text
Title : Full
Language : English
Default : Yes
Forced : No

Text #2
ID : 5
Format : UTF-8
Codec ID : S_TEXT/UTF8
Codec ID/Info : UTF-8 Plain Text
Title : SDH
Language : English
Default : No
Forced : No

Menu
00:00:00.000 : :00:00:00.000
00:06:17.502 : :00:06:17.502
00:10:53.403 : :00:10:53.403
00:17:08.778 : :00:17:08.778
00:22:20.089 : :00:22:20.089
00:28:05.517 : :00:28:05.517
00:35:27.125 : :00:35:27.125
00:42:37.680 : :00:42:37.680
00:49:33.262 : :00:49:33.262
00:55:13.101 : :00:55:13.101
01:01:01.867 : :01:01:01.867
01:06:34.616 : :01:06:34.616
01:11:33.163 : :01:11:33.164
01:17:53.085 : :01:17:53.085
01:23:58.533 : :01:23:58.533
01:29:42.127 : :01:29:42.127








Релиз от:



   Похожие торренты   Торрент   Размер 
В этой теме нет новых непрочитанных сообщений. Жёлтые птицы / The Yellow Birds (Александр Мурс) [2017, драма, военный, HDRip] MVO

90 | 2

1.46 ГБ

В этой теме нет новых непрочитанных сообщений. Жёлтые птицы / The Yellow Birds (2017) WEBRip | L2

48 | 8

1.13 ГБ

В этой теме нет новых непрочитанных сообщений. Жёлтые птицы / The Yellow Birds (2017) WEBRip 720p | L2

51 | 5

3.27 ГБ

В этой теме нет новых непрочитанных сообщений. Александр [Расширенная версия] / Alexander [The Ultimate Cut] (Оливер Стоун) [2004, боевик, драма, мелодрама, приключения, военный, биография, история, BDRip] AVO

29 | 2

4.37 ГБ

В этой теме нет новых непрочитанных сообщений. Конвой PQ-17 (1-8 серии из 8) (Александр Котт) [2004, боевик, драма, приключения, военный, история, DVDRip-AVC]

7 | 0

4.37 ГБ

В этой теме нет новых непрочитанных сообщений. Огненные птицы / Fire Birds (1990) BDRip 720p | A

33 | 29

3.38 ГБ

В этой теме нет новых непрочитанных сообщений. BBC: Живая Природа. Райские птицы / PBS: Nature - Birds of the Gods (2010) BDRip-AVC от -=HD-NET=-

40 | 4

727.24 МБ




Вы не можете начинать темы
Вы не можете отвечать на сообщения
Вы не можете редактировать свои сообщения
Вы не можете удалять свои сообщения
Вы не можете добавлять вложения

Перейти:  
 Вход
ppkBB3cker v.2 © 2008-2014 @ PPK
[ Time : 0.029s | 16 Queries | GZIP : Off ]

cron