img image001 image001 image001 image001 image001 image001 image001 image001 image001 image001 image001 image001 image001 image001 image001 image001

Planets Sun Sun Sun
Статистика раздачи
Автор: Снежана | Размер: 1.56 ГБ | Добавлен: 09 авг 2018
Раздают: 14    Качают: 0
Скачать торрент
Скачать торрент
Описание торрента

СообщениеДобавлено: 09 авг 2018 

В этих стенах / Within These Walls
Оценка релиза: 

Перевод: Любительский (одноголосый) datynet; перевод: Куценко, субтитры: отсутствуют
Формат: WEBDLRip-AVC, MKV, H.264, MP3
Страна: США
Режиссер: Джеймс Такер / James Tucker
Жанр: ужасы
Продолжительность: 01:35:03
Год выпуска: 2015
В ролях: Келси Жуковский, Лаура Мортенсен, Фелисса Роуз, Марв Бловелт, Джессика Роджерс, Джеймс Такер, Кейт Росвен, Кенни Элстотт, Даниэль Фергус, Джексон Скрибнер.
Описание: Заключенная в своем собственном доме, пленница в своём собственном теле. Алэйна переезжает в дом покойной матери. Вначале она думает, что дух матери её тревожит, но в реальности всё страшней. Что-то зловещее и безжалостное преследует её. Дух насмехается над ней и вторгается в её тело, ум, душу. Алэйна должна бороться и узнать, что же на самом деле случилось с её матерью и есть ли у неё самой хоть какие-то шансы на спасение.



Видео: 1920x800 (2.40:1), 24 fps, MPEG4 Video (H264) ~2 150 kbps avg, 0.058 bit/pixel
Аудио: 48 kHz, MPEG Layer 3, 2 ch, ~ 192 kbps avg
Доп. информация: Одна победа на кинофестивале Chicago Horror Film Festival 2015.



Format : Matroska
Format version : Version 4 / Version 2
File size : 1.56 GiB
Duration : 1 h 35 min
Overall bit rate : 2 341 kb/s
Encoded date : UTC 2018-08-08 13:39:22
Writing application : mkvmerge v9.6.0 ('Slave To Your Mind') 64bit
Writing library : libebml v1.3.4 + libmatroska v1.4.5

Video
ID : 1
Format : AVC
Format/Info : Advanced Video Codec
Format profile :
Format settings, CABAC : Yes
Format settings, RefFrames : 4 frames
Codec ID : V_MPEG4/ISO/AVC
Duration : 1 h 35 min
Bit rate : 2 150 kb/s
Width : 1 920 pixels
Height : 800 pixels
Display aspect ratio : 2.40:1
Frame rate mode : Constant
Frame rate : 24.000 FPS
Color space : YUV
Chroma subsampling : 4:2:0
Bit depth : 8 bits
Scan type : Progressive
Bits/(Pixel*Frame) : 0.058
Stream size : 1.43 GiB (92%)
Writing library : x264 core 155
Encoding settings : cabac=1 / ref=4 / deblock=1:-1:-1 / analyse=0x3:0x133 / me=umh / subme=9 / psy=1 / psy_rd=1.00:0.15 / mixed_ref=1 / me_range=24 / chroma_me=1 / trellis=2 / 8x8dct=1 / cqm=0 / deadzone=21,11 / fast_pskip=0 / chroma_qp_offset=-3 / threads=18 / lookahead_threads=1 / sliced_threads=0 / nr=0 / decimate=1 / interlaced=0 / bluray_compat=0 / constrained_intra=0 / bframes=3 / b_pyramid=2 / b_adapt=2 / b_bias=0 / direct=3 / weightb=1 / open_gop=0 / weightp=2 / keyint=250 / keyint_min=23 / scenecut=40 / intra_refresh=0 / rc_lookahead=60 / rc=2pass / mbtree=1 / bitrate=2150 / ratetol=1.0 / qcomp=0.60 / qpmin=0 / qpmax=69 / qpstep=4 / cplxblur=20.0 / qblur=0.5 / vbv_maxrate=31250 / vbv_bufsize=31250 / nal_hrd=none / filler=0 / ip_ratio=1.40 / aq=1:1.00
Default : Yes
Forced : No

Audio
ID : 2
Format : MPEG Audio
Format version : Version 1
Format profile : Layer 3
Codec ID : A_MPEG/L3
Codec ID/Hint : MP3
Duration : 1 h 35 min
Bit rate mode : Constant
Bit rate : 192 kb/s
Channel(s) : 2 channels
Sampling rate : 48.0 kHz
Frame rate : 41.667 FPS (1152 SPF)
Compression mode : Lossy
Stream size : 131 MiB (8%)
Default : Yes
Forced : No






   Похожие торренты   Торрент   Размер 
В этой теме нет новых непрочитанных сообщений. Чёрный ручей / Black Creek ( Джеймс Кроу / James Crow ) [2017, ужасы, WEBDLRip] MVO / Мистика

4 | 0

1.37 ГБ

В этой теме нет новых непрочитанных сообщений. Палачи / The Executioners (Джорджо Серафини) [2017, ужасы, триллер, WEBDLRip-AVC] DVO / Фильмы HDRip

6 | 0

2.15 ГБ

В этой теме нет новых непрочитанных сообщений. Офисный беспредел / Office Uprising (Лин Одинг) [2018, ужасы, боевик, комедия, WEBDLRip-AVC] 2хDUB(rus+ukr) / Фильмы HDRip

22 | 0

2.11 ГБ

В этой теме нет новых непрочитанных сообщений. Один в четырёх стенах / Alone in Four Walls / Allein in vier Wänden (2007) SATRip

10 | 2

465.37 МБ

В этой теме нет новых непрочитанных сообщений. Джеймс Уайт / James White (2015) HDRip | L

18 | 1

1.37 ГБ

В этой теме нет новых непрочитанных сообщений. Гибби / Gibby (Фил Горн) [2016, семейный, приключения, комедия, WEBDLRip-AVC] MVO / Фильмы HDRip

1 | 0

2.1 ГБ

В этой теме нет новых непрочитанных сообщений. Испанские судьи / Spanish Judges (Оз Скотт) [2000, драма, криминал, WEBDLRip-AVC ] MVO / Фильмы HDRip

2 | 0

2.99 ГБ




Вы не можете начинать темы
Вы не можете отвечать на сообщения
Вы не можете редактировать свои сообщения
Вы не можете удалять свои сообщения
Вы не можете добавлять вложения

Перейти:  
 Вход
ppkBB3cker v.2 © 2008-2014 @ PPK
[ Time : 0.030s | 15 Queries | GZIP : Off ]

cron