img image001 image001 image001 image001 image001 image001 image001 image001 image001 image001 image001 image001 image001 image001 image001 image001

Planets Sun Sun Sun
Статистика раздачи
Автор: Снежана | Размер: 8.55 ГБ | Добавлен: 14 авг 2018
Раздают: 8    Качают: 4
Скачать торрент
Скачать торрент
Описание торрента

СообщениеДобавлено: 14 авг 2018 

Элита убийц

The Killer Elite



Страна: США
Жанр: боевик, триллер, криминал
Год выпуска: 1975
Продолжительность: 02:03:27
Перевод: Профессиональный (многоголосый, закадровый), Профессиональный (двухголосый, закадровый), Авторский
Субтитры: русские, английские.


Режиссер: Сэм Пекинпа / Sam Peckinpah


В ролях: Джеймс Каан (Mike Locken), Роберт Дювалл (George Hansen), Артур Хилл (Cap Collis), Бо Хопкинс (Jerome Miller), Мако (Yuen Chung), Берт Янг (Mac), Гиг Янг (Lawrence Weyburn), Том Клэнси (O'Leary), Тиана Александра (Tommie), Уолтер Келли (Walter), Кейт Хефлин (Amy), Сондра Блейк (Josephine)


Описание: Наемный убийца Джордж Хансен обманывает своего партнера Майка Локена, чем порождает у того неуемную жажду мести со всеми вытекающими из этого последствиями.











Качество: BDRip 720p
Контейнер: MKV
Видео: MPEG-4 AVC, 1280x546 (2.35:1), 8890 kbps, 23,976 fps, 0,531 bpp
Аудио №1: русский / AC3 / 2.0 / 48 kHz / 192 kbps / MVO ( 5 канал )
Аудио №2: русский / AC3 / 2.0 / 48 kHz / 192 kbps / DVO ( HTB+ )
Аудио №3: русский / AC3 / 2.0 / 48 kHz / 192 kbps / AVO ( Михалёв )
Аудио №4: английский / AC3 / 1.0 / 48 kHz / 448 kbps
Навигация по главам: есть



Формат : Matroska
Версия формата : Version 2
Размер файла : 8,55 Гбайт
Продолжительность : 2 ч. 3 м.
Общий поток : 9916 Кбит/сек
Название фильма : = Элита убийц / The Killer Elite (1975) BDRip 720p - KORSAR =
Дата кодирования : UTC 2018-08-11 21:12:12
Программа кодирования : mkvmerge v5.8.0 ('No Sleep / Pillow') built on Sep 2 2012 15:37:04
Библиотека кодирования : libebml v1.2.3 + libmatroska v1.3.0
Attachment : Yes
Видео
Идентификатор : 1
Формат : AVC
Формат/Информация : Advanced Video Codec
Профиль формата : High@L4.1
Параметр CABAC формата : Да
Параметр ReFrames формата : 12 кадров
Идентификатор кодека : V_MPEG4/ISO/AVC
Продолжительность : 2 ч. 3 м.
Битрейт : 8890 Кбит/сек
Ширина : 1280 пикселей
Высота : 546 пикселей
Соотношение сторон : 2,35:1
Режим частоты кадров : Постоянный
Частота кадров : 23,976 кадра/сек
Цветовое пространство : YUV
Субдискретизация насыщенности : 4:2:0
Битовая глубина : 8 бит
Тип развёртки : Прогрессивная
Бит/(Пиксели*Кадры) : 0.531
Размер потока : 7,50 Гбайт (88%)
Заголовок : Элита убийц / The Killer Elite (1975) BDRip 720p - KORSAR
Библиотека кодирования : x264 core 148 r2744kMod b97ae06
Настройки программы : cabac=1 / ref=12 / deblock=1:-2:-2 / analyse=0x3:0x113 / me=umh / subme=11 / psy=1 / fade_compensate=0.00 / psy_rd=1.02:0.06 / mixed_ref=1 / me_range=48 / chroma_me=1 / trellis=2 / 8x8dct=1 / cqm=0 / deadzone=21,11 / fast_pskip=0 / chroma_qp_offset=-3 / threads=12 / lookahead_threads=3 / sliced_threads=0 / nr=0 / decimate=0 / interlaced=0 / bluray_compat=0 / constrained_intra=0 / bframes=10 / b_pyramid=2 / b_adapt=2 / b_bias=0 / direct=3 / weightb=1 / open_gop=0 / weightp=2 / keyint=240 / keyint_min=23 / scenecut=40 / intra_refresh=0 / rc_lookahead=60 / rc=2pass / mbtree=0 / bitrate=8890 / ratetol=1.0 / qcomp=0.70 / qpmin=0 / qpmax=39 / qpstep=4 / cplxblur=20.0 / qblur=0.5 / vbv_maxrate=50000 / vbv_bufsize=62500 / nal_hrd=none / filler=0 / ip_ratio=1.40 / pb_ratio=1.30 / aq=3:0.80
Язык : English
Default : Да
Forced : Нет
Основные цвета : BT.709
Характеристики трансфера : BT.709
Коэффициенты матрицы : BT.709
Аудио #1
Идентификатор : 2
Формат : AC-3
Формат/Информация : Audio Coding 3
Расширение режима : CM (complete main)
Параметр Endianness формата : Big
Идентификатор кодека : A_AC3
Продолжительность : 2 ч. 3 м.
Вид битрейта : Постоянный
Битрейт : 192 Кбит/сек
Каналы : 2 канала
Расположение каналов : Front: L R
Частота : 48,0 КГц
Битовая глубина : 16 бит
Метод сжатия : С потерями
Размер потока : 170 Мбайт (2%)
Заголовок : MVO ( 5 канал )
Язык : Russian
Default : Да
Forced : Нет
Аудио #2
Идентификатор : 3
Формат : AC-3
Формат/Информация : Audio Coding 3
Расширение режима : CM (complete main)
Параметр Endianness формата : Big
Идентификатор кодека : A_AC3
Продолжительность : 2 ч. 3 м.
Вид битрейта : Постоянный
Битрейт : 192 Кбит/сек
Каналы : 2 канала
Расположение каналов : Front: L R
Частота : 48,0 КГц
Битовая глубина : 16 бит
Метод сжатия : С потерями
Размер потока : 170 Мбайт (2%)
Заголовок : DVO ( HTB+ )
Язык : Russian
Default : Нет
Forced : Нет
Аудио #3
Идентификатор : 4
Формат : AC-3
Формат/Информация : Audio Coding 3
Расширение режима : CM (complete main)
Параметр Endianness формата : Big
Идентификатор кодека : A_AC3
Продолжительность : 2 ч. 3 м.
Вид битрейта : Постоянный
Битрейт : 192 Кбит/сек
Каналы : 2 канала
Расположение каналов : Front: L R
Частота : 48,0 КГц
Битовая глубина : 16 бит
Метод сжатия : С потерями
Размер потока : 170 Мбайт (2%)
Заголовок : AVO ( Михалёв )
Язык : Russian
Default : Нет
Forced : Нет
Аудио #4
Идентификатор : 5
Формат : AC-3
Формат/Информация : Audio Coding 3
Расширение режима : CM (complete main)
Параметр Endianness формата : Big
Идентификатор кодека : A_AC3
Продолжительность : 2 ч. 3 м.
Вид битрейта : Постоянный
Битрейт : 448 Кбит/сек
Каналы : 1 канал
Расположение каналов : Front: C
Частота : 48,0 КГц
Битовая глубина : 16 бит
Метод сжатия : С потерями
Размер потока : 396 Мбайт (5%)
Язык : English
Default : Нет
Forced : Нет
Текст #1
Идентификатор : 6
Формат : UTF-8
Идентификатор кодека : S_TEXT/UTF8
Идентификатор кодека/Информация : UTF-8 Plain Text
Язык : Russian
Default : Нет
Forced : Нет
Текст #2
Идентификатор : 7
Формат : UTF-8
Идентификатор кодека : S_TEXT/UTF8
Идентификатор кодека/Информация : UTF-8 Plain Text
Язык : English
Default : Нет
Forced : Нет
Меню
00:00:00.000 : en:00:00:00.000
00:05:00.000 : en:00:05:00.000
00:10:00.000 : en:00:10:00.000
00:15:00.000 : en:00:15:00.000
00:20:00.000 : en:00:20:00.000
00:25:00.000 : en:00:25:00.000
00:30:00.000 : en:00:30:00.000
00:35:00.000 : en:00:35:00.000
00:40:00.000 : en:00:40:00.000
00:45:00.000 : en:00:45:00.000
00:50:00.000 : en:00:50:00.000
00:55:00.000 : en:00:55:00.000
01:00:00.000 : en:01:00:00.000
01:05:00.000 : en:01:05:00.000
01:10:00.000 : en:01:10:00.000
01:15:00.000 : en:01:15:00.000
01:20:00.000 : en:01:20:00.000
01:25:00.000 : en:01:25:00.000
01:30:00.000 : en:01:30:00.000
01:35:00.000 : en:01:35:00.000
01:40:00.000 : en:01:40:00.000
01:45:00.000 : en:01:45:00.000
01:50:00.000 : en:01:50:00.000
01:55:00.000 : en:01:55:00.000
02:00:00.000 : en:02:00:00.000








   Похожие торренты   Торрент   Размер 
В этой теме нет новых непрочитанных сообщений. Элита убийц / The Killer Elite (1975) BDRip 1080p | P, P2, A

68 | 37

9.77 ГБ

В этой теме нет новых непрочитанных сообщений. Элита убийц / The Killer Elite (1975) BDRemux 1080p | P, P2, A

4 | 3

19.53 ГБ

В этой теме нет новых непрочитанных сообщений. Профессионал / Killer Elite (2011) BDRip 720p | D, A

223 | 50

9.75 ГБ

В этой теме нет новых непрочитанных сообщений. Дерсу Узала (1975) BDRip 720p от KORSAR

14 | 2

7.03 ГБ

В этой теме нет новых непрочитанных сообщений. Возвращение помидоров-убийц / Return of the Killer Tomatoes (1988) BDRip от Koenig | P2

4 | 0

1.45 ГБ

В этой теме нет новых непрочитанных сообщений. Возвращение помидоров-убийц / Return of the Killer Tomatoes (1988) BDRip-AVC от ExKinoRay | P2

2 | 1

2.03 ГБ

В этой теме нет новых непрочитанных сообщений. Профессионал / Killer Elite (2011) BDRip-AVC от Plusnindimon | D

44 | 4

750.19 МБ




Вы не можете начинать темы
Вы не можете отвечать на сообщения
Вы не можете редактировать свои сообщения
Вы не можете удалять свои сообщения
Вы не можете добавлять вложения

Перейти:  
 Вход
ppkBB3cker v.2 © 2008-2014 @ PPK
[ Time : 0.047s | 16 Queries | GZIP : Off ]

cron