img image001 image001 image001 image001 image001 image001 image001 image001 image001 image001 image001 image001 image001 image001 image001 image001

Planets Sun Sun Sun
Статистика раздачи
Автор: Снежана | Размер: 7.45 ГБ | Добавлен: 14 авг 2018
Раздают: 11    Качают: 0
Скачать торрент
Скачать торрент
Описание торрента

СообщениеДобавлено: 14 авг 2018 

Информация о фильме
Название: Незаконное предложение
Оригинальное название: Illegal Tender
Год выхода: 2007
Жанр: Триллер, драма, криминал
Режиссер: Фрэнк. Рейс
В ролях: Майкл Филип Дел Рио, Сэмюэл Молина, Рик Сепулведа, Мэнни Перез, Д.С. Бенни, Мерседес Меркадо, Кармен Перез, Зулаы Хенао, Джесика Пиментел, Ангелик Замбрана
О фильме:
Студент-латиноамериканец, чья мать сбежала от головорезов, убивших ее мужа, вынужден податься с ней в бега. Спустя годы неопределенности юноша вместе со своей девушкой возвращается на родину в Пуэрто-Рико, чтобы разобраться в темном прошлом…

Страна: США
Студия: Universal Pictures, New Deal Entertainment
Продолжительность: 01:47:00
Перевод: Профессиональный (многоголосый, закадровый)
Файл
Кодек: x264
Качество: WEB-DL 1080p
Видео: MPEG-4 AVC, 8366 Kбит/с, 1920x1080
Звук #1: Русский | AC3, 6 ch, 384 Кбит/с
Звук #2: Английский | EAC3, 6 ch, 640 Кбит/с
Субтитры: Английские

Формат : Matroska
Версия формата : Version 2
Размер файла : 7,16 Гбайт
Продолжительность : 1 ч. 47 м.
Режим общего битрейта : Переменный
Общий поток : 9580 Кбит/сек
Название фильма : Illegal.Tender.2007.1080p.AMZN.WEB-DL.by.zzZGVvv
Дата кодирования : UTC 2018-08-13 04:23:21
Программа кодирования : mkvmerge v5.8.0 ('No Sleep / Pillow') built on Sep 2 2012 15:37:04
Библиотека кодирования : libebml v1.2.3 + libmatroska v1.3.0
Attachements : cover.jpg
Видео
Идентификатор : 1
Формат : AVC
Формат/Информация : Advanced Video Codec
Профиль формата : High@L4
Параметр CABAC формата : Да
Параметр ReFrames формата : 4 кадра
Идентификатор кодека : V_MPEG4/ISO/AVC
Продолжительность : 1 ч. 47 м.
Вид битрейта : Переменный
Битрейт : 8366 Кбит/сек
Максимальный битрейт : 15,0 Мбит/сек
Ширина : 1920 пикселей
Высота : 1080 пикселей
Соотношение сторон : 16:9
Режим частоты кадров : Постоянный
Частота кадров : 23,976 кадра/сек
Цветовое пространство : YUV
Субдискретизация насыщенности : 4:2:0
Битовая глубина : 8 бит
Тип развёртки : Прогрессивная
Бит/(Пиксели*Кадры) : 0.168
Размер потока : 6,25 Гбайт (87%)
Заголовок : Illegal.Tender.2007.1080p.AMZN.WEB-DL.DDP5.1
Язык : English
Default : Да
Forced : Нет
Цветовой диапазон : Limited
Основные цвета : BT.709
Характеристики трансфера : BT.709
Коэффициенты матрицы : BT.709
Аудио #1
Идентификатор : 2
Формат : AC-3
Формат/Информация : Audio Coding 3
Расширение режима : CM (complete main)
Параметр Endianness формата : Big
Идентификатор кодека : A_AC3
Продолжительность : 1 ч. 47 м.
Вид битрейта : Постоянный
Битрейт : 384 Кбит/сек
Каналы : 6 каналов
Расположение каналов : Front: L C R, Side: L R, LFE
Частота : 48,0 КГц
Метод сжатия : С потерями
Размер потока : 294 Мбайт (4%)
Default : Да
Forced : Нет
Аудио #2
Идентификатор : 3
Формат : E-AC-3
Формат/Информация : Audio Coding 3
Параметр Endianness формата : Big
Идентификатор кодека : A_EAC3
Продолжительность : 1 ч. 47 м.
Вид битрейта : Постоянный
Битрейт : 640 Кбит/сек
Каналы : 6 каналов
Расположение каналов : Front: L C R, Side: L R, LFE
Частота : 48,0 КГц
Метод сжатия : С потерями
Задержка видео : 24 мс.
Размер потока : 490 Мбайт (7%)
Язык : English
Default : Нет
Forced : Нет
Текст #1
Идентификатор : 4
Формат : UTF-8
Идентификатор кодека : S_TEXT/UTF8
Идентификатор кодека/Информация : UTF-8 Plain Text
Язык : English
Default : Нет
Forced : Нет
Текст #2
Идентификатор : 5
Формат : UTF-8
Идентификатор кодека : S_TEXT/UTF8
Идентификатор кодека/Информация : UTF-8 Plain Text
Заголовок : SDH
Язык : English
Default : Нет
Forced : Нет



   Похожие торренты   Торрент   Размер 
В этой теме нет новых непрочитанных сообщений. Незаконное вторжение / Unlawful Entry (1992) BDRip 1080p | P, P2, A

2 | 5

11.49 ГБ

В этой теме нет новых непрочитанных сообщений. Предложение / The Proposition (2005) BDRip 1080p | P2

45 | 15

9.35 ГБ

В этой теме нет новых непрочитанных сообщений. Предложение / The Proposition (2005) BDRemux 1080p от NovaLan

18 | 3

16.05 ГБ

В этой теме нет новых непрочитанных сообщений. Непристойное предложение / Indecent Proposal (1993) BDRip 1080p от NNNB | P, P2, A

27 | 3

11.52 ГБ

В этой теме нет новых непрочитанных сообщений. Непристойное предложение / Indecent Proposal (1993) BDRemux 1080p от URALMIX | P, P2, A | Лицензия

18 | 23

33.85 ГБ

В этой теме нет новых непрочитанных сообщений. Drumatik - Illegal Space Activities Reloaded (2015) MP3

13 | 2

190.46 МБ

В этой теме нет новых непрочитанных сообщений. Нелегальный блюз / Illegal in Blue (1995) HDTVRip

45 | 23

1.45 ГБ




Вы не можете начинать темы
Вы не можете отвечать на сообщения
Вы не можете редактировать свои сообщения
Вы не можете удалять свои сообщения
Вы не можете добавлять вложения

Перейти:  
 Вход
ppkBB3cker v.2 © 2008-2014 @ PPK
[ Time : 0.033s | 15 Queries | GZIP : Off ]

cron