img image001 image001 image001 image001 image001 image001 image001 image001 image001 image001 image001 image001 image001 image001 image001 image001

Planets Sun Sun Sun
Статистика раздачи
Автор: Снежана | Размер: 1.31 ГБ | Добавлен: 14 авг 2018
Раздают: 112    Качают: 2
Скачать торрент
Скачать торрент
Описание торрента

СообщениеДобавлено: 14 авг 2018 

Информация о фильме
Название: Замок Эрос
Оригинальное название: Castle Eros
Год выхода: 2002
Жанр: Эротика, фентези
Режиссер: Мэдисон Монро
В ролях: Челси Блу, Холли Сэмпсон, Каталина Ларранага, Себастьен Гай, Алекс Ферро, Дэнис Марти, Лоредана Бонтемпи, Giro Tommaselli, Мирко Цито, Silvia Gogovacinschi
О фильме:
С двумя сёстрами американками на каникулах в Риме случается беда - их обворовывают и они остаются без жилья и без денег. К несчастью коррумпированная полиция старого света покрывает преступников разоряющих туристов. И сёстрам приходится искать работу в провинциальном замке чтобы не умереть с голоду и заработать на обратный билет домой. Только вот замок в котором они начали работать оказывается необычным местом и преподносит новые пикантные приключения.

Страна: США, Италия
Студия: Playboy / Fool Moon / Charles Band
Продолжительность: 01:33:38
Перевод: Профессиональный (двухголосый закадровый) ТВ+/IVI
Перевод: Профессиональный (двухголосый закадровый) Виккон
Перевод: Любительский одноголосный закадровый
Реклама: Отсутствует
Файл
Кодек: DivX
Качество: DVDRip
Видео: DivX 5 640x480 29.97fps 1400kbps
Звук 1: AC3 48000Hz stereo 192kbps (Rus) VO
Звук 2: MP3 48000Hz stereo 128kbps (Rus) DVO ТВ+/IVI
Звук 3: MP3 44100Hz stereo 255kbps (Rus) DVO Виккон
Семпл
General
Complete name : G:Castle Erotica DVDRip Rus.avi
Format : AVI
Format/Info : Audio Video Interleave
File size : 1.31 GiB
Duration : 1 h 33 min
Overall bit rate : 2 000 kb/s
Writing application : VirtualDubMod 1.5.10.2 (build 2542/release)
Writing library : VirtualDubMod build 2542/release
IDFV : DMF 2.0.0
Video
ID : 0
Format : MPEG-4 Visual
Format settings : BVOP1
Format settings, BVOP : 1
Format settings, QPel : No
Format settings, GMC : No warppoints
Format settings, Matrix : Default (H.263)
Muxing mode : Packed bitstream
Codec ID : DX50
Codec ID/Hint : DivX 5
Duration : 1 h 33 min
Bit rate : 1 401 kb/s
Nominal bit rate : 6 896 kb/s
Width : 640 pixels
Height : 480 pixels
Display aspect ratio : 4:3
Frame rate : 29.970 (30000/1001) FPS
Color space : YUV
Chroma subsampling : 4:2:0
Bit depth : 8 bits
Scan type : Progressive
Compression mode : Lossy
Bits/(Pixel*Frame) : 0.152
Stream size : 937 MiB (70%)
Writing library : DivX 3330
Audio #1
ID : 1
Format : AC-3
Format/Info : Audio Coding 3
Codec ID : 2000
Duration : 1 h 33 min
Bit rate mode : Constant
Bit rate : 192 kb/s
Channel(s) : 2 channels
Channel positions : Front: L R
Sampling rate : 48.0 kHz
Frame rate : 31.250 FPS (1536 SPF)
Bit depth : 16 bits
Compression mode : Lossy
Stream size : 128 MiB (10%)
Alignment : Split accross interleaves
Interleave, duration : 33 ms (1.00 video frame)
Interleave, preload duration : 500 ms
Service kind : Complete Main
Audio #2
ID : 2
Format : MPEG Audio
Format version : Version 1
Format profile : Layer 3
Format settings : Joint stereo / MS Stereo
Codec ID : 55
Codec ID/Hint : MP3
Duration : 1 h 33 min
Bit rate mode : Constant
Bit rate : 128 kb/s
Channel(s) : 2 channels
Sampling rate : 48.0 kHz
Compression mode : Lossy
Stream size : 85.6 MiB (6%)
Alignment : Aligned on interleaves
Interleave, duration : 33 ms (1.00 video frame)
Interleave, preload duration : 504 ms
Audio #3
ID : 3
Format : MPEG Audio
Format version : Version 1
Format profile : Layer 3
Format settings : Joint stereo
Codec ID : 55
Codec ID/Hint : MP3
Duration : 1 h 33 min
Bit rate mode : Constant
Bit rate : 256 kb/s
Channel(s) : 2 channels
Sampling rate : 44.1 kHz
Compression mode : Lossy
Stream size : 171 MiB (13%)
Alignment : Aligned on interleaves
Interleave, duration : 33 ms (1.00 video frame)
Interleave, preload duration : 522 ms




   Похожие торренты   Торрент   Размер 
В этой теме нет новых непрочитанных сообщений. Эрос / Eros (2004) DVD-9 | P

73 | 20

4.85 ГБ

В этой теме нет новых непрочитанных сообщений. Черный замок / The Black Castle (1952) DVDRip | L1

110 | 34

1.45 ГБ

В этой теме нет новых непрочитанных сообщений. Замок совы / Owl's Castle / Fukuro no Shiro (1999) DVDRip oт RG Orient Extreme | P

38 | 10

1.46 ГБ

В этой теме нет новых непрочитанных сообщений. Замок Сов / Castle Of Owls / Ninja Hicho Fukuro No Shiro (1963) DVDRip oт RG Orient Extreme | A

88 | 10

747.87 МБ

В этой теме нет новых непрочитанных сообщений. Полуночный замок / Midnight Castle (2013) PC

34 | 3

104.35 МБ

В этой теме нет новых непрочитанных сообщений. Замок из песка / Sand Castle (2017) WEB-DLRip | L

75 | 2

1.37 ГБ

В этой теме нет новых непрочитанных сообщений. Последний замок / The Last Castle (2001) DTheaterRip 720p

52 | 10

7.87 ГБ




Вы не можете начинать темы
Вы не можете отвечать на сообщения
Вы не можете редактировать свои сообщения
Вы не можете удалять свои сообщения
Вы не можете добавлять вложения

Перейти:  
 Вход
ppkBB3cker v.2 © 2008-2014 @ PPK
[ Time : 0.020s | 17 Queries | GZIP : Off ]